Достать ножи: Стеклянная луковица

MVO

Добыча

Дубляж

Уэнсдэй

1 сезон

Тор

Дубляж

13 клиническая

1 сезон

Жестокая ночь

MVO

Одни из нас

1 сезон

Deluxe

pack

Рекомендуем

30

Пиратка

ВАЖНО

ВАЖНО

Ghostwire

Пиратка

jed

RePack

nioh2

RePack

RDR2

RePack

NEED FOR SPEED™ PAYBACK

RePack

скачать торрент

Кинопоиск HD

Острые козырьки 6 сезон

6 сезон

FAR CRY 6

RePack

скачать торрент

Лицензия

скачать торрент

MVO

1

1 сезон

скачать торрент

1 сезон

скачать торрент

Лицензия

  

Крепись! / Get Hard (Этан Коэн) [2015, комедия, UHD WEBRip 2160p] MVO [Лицензия / iTunes] [Театральная версия]

Крепись! через торрент 5050.piratbit.fun

Размер: 27.04 GB | Добавлен: 4 года 9 мес. назад | Торрент скачан:17 раз
Смотреть онлайн | Скачать | Поддержите нас   

05-04-2018 20:55 Крепись! Скачать торрент  

Крепись! / Get Hard
| Театральная версия |
Год выпуска: 2015
Страна: США
Жанр: комедия
Продолжительность: 01:40:17
Перевод: Профессиональный многоголосый Лицензия / iTunes
Субтитры: Русские (форсированные, полные), английские (SDH)

Режиссер: Этан Коэн

rating

В ролях:

Уилл Феррелл, Кевин Харт, Элисон Бри, Мариана Паола Висенте, Пол Бен-Виктор, Ти Ай, Ванесса Амайа, Тэрин Террелл, Кристофер Хески

Описание:

Миллионер Джеймс Кинг жил себе спокойно, пока его дело не рассмотрели в суде, предъявив обвинение в растрате государственного имущества. Мужчине дали ровно 30 дней на то, чтобы он уладил все свои дела и был готов к отправке в тюрьму. Кинга, который по своей натуре далеко не крепкий орешек, вся эта ситуация пугает и он обращается за помощью к своему мойщику машин. Вместе с Дарнеллом Льюисом будущий зек начинает подготовку к тюремной жизни, которая не щадит слабаков. Такое неожиданное знакомство открывает для героев новые стороны и правды, о которых они и не подозревали.

Качество: UHD WEBRip 2160p
Формат: MKV

Видео: MPEG-H HEVC HDR, 36.7 Mбит/с, 3840x2160, 23.976 кадр/с
Аудио#1: Русский (AC3, 6 ch, 384 Кбит/с) / Профессиональный многоголосый [iTunes]
Аудио#2: Английский (DTS, 6 ch, 1509 Кбит/с)
скриншот  скриншот  скриншот  скриншот  скриншот  

General
Unique ID : 11779024576659260883693241611270953850 (0x8DC8EBFD7B62CC6B699CA067ABF1B7A)
Complete name : D:uTorrentKrepis.2015.WEB-DL.2160p.HDR.UHD.MediaClub.mkv
Format : Matroska
Format version : Version 4 / Version 2
File size : 27.0 GiB
Duration : 1 h 40 min
Overall bit rate : 38.6 Mb/s
Encoded date : UTC 2018-04-05 09:20:12
Writing application : mkvmerge v19.0.0 ('Brave Captain') 64-bit
Writing library : libebml v1.3.5 + libmatroska v1.4.8
Cover : Yes
Attachments : cover.jpg

Video
ID : 1
Format : HEVC
Format/Info : High Efficiency Video Coding
Commercial name : HDR10
Format profile : Main [email protected]@Main
Codec ID : V_MPEGH/ISO/HEVC
Duration : 1 h 40 min
Bit rate : 36.7 Mb/s
Width : 3 840 pixels
Height : 2 160 pixels
Display aspect ratio : 16:9
Frame rate mode : Constant
Frame rate : 23.976 (24000/1001) FPS
Color space : YUV
Chroma subsampling : 4:2:0
Bit depth : 10 bits
Bits/(Pixel*Frame) : 0.185
Stream size : 25.7 GiB (95%)
Title : WEB-DL.2160p.UHD.HDR by Silverok
Default : Yes
Forced : No
Color range : Limited
Color primaries : BT.2020
Transfer characteristics : PQ
Matrix coefficients : BT.2020 non-constant
Mastering display color primaries : BT.709
Mastering display luminance : min: 0.0050 cd/m2, max: 1000 cd/m2

Audio #1
ID : 2
Format : AC-3
Format/Info : Audio Coding 3
Codec ID : A_AC3
Duration : 1 h 40 min
Bit rate mode : Constant
Bit rate : 384 kb/s
Channel(s) : 6 channels
Channel positions : Front: L C R, Side: L R, LFE
Sampling rate : 48.0 kHz
Frame rate : 31.250 FPS (1536 SPF)
Bit depth : 16 bits
Compression mode : Lossy
Stream size : 275 MiB (1%)
Title : Профессиональный многоголосый [iTunes]
Language : Russian
Service kind : Complete Main
Default : Yes
Forced : No

Audio #2
ID : 3
Format : DTS
Format/Info : Digital Theater Systems
Codec ID : A_DTS
Duration : 1 h 40 min
Bit rate mode : Constant
Bit rate : 1 509 kb/s
Channel(s) : 6 channels
Channel positions : Front: L C R, Side: L R, LFE
Sampling rate : 48.0 kHz
Frame rate : 93.750 FPS (512 SPF)
Bit depth : 24 bits
Compression mode : Lossy
Stream size : 1.06 GiB (4%)
Language : English
Default : No
Forced : No

Text #1
ID : 4
Format : UTF-8
Codec ID : S_TEXT/UTF8
Codec ID/Info : UTF-8 Plain Text
Duration : 1 h 38 min
Bit rate : 2 b/s
Count of elements : 47
Stream size : 1.73 KiB (0%)
Title : Forced
Language : Russian
Default : Yes
Forced : No

Text #2
ID : 5
Format : UTF-8
Codec ID : S_TEXT/UTF8
Codec ID/Info : UTF-8 Plain Text
Duration : 1 h 38 min
Bit rate : 124 b/s
Count of elements : 1791
Stream size : 90.0 KiB (0%)
Title : Full
Language : Russian
Default : No
Forced : No

Text #3
ID : 6
Format : UTF-8
Codec ID : S_TEXT/UTF8
Codec ID/Info : UTF-8 Plain Text
Duration : 1 h 35 min
Bit rate : 94 b/s
Count of elements : 1846
Stream size : 66.4 KiB (0%)
Title : SDH
Language : English
Default : No
Forced : No




Скачать Крепись! через торрент https://pic1.kartinco.top/images/11/zz7vd.jpg Скачать, смотреть онлайн Крепись! бесплантно в хорошем качестве Описание: Миллионер Джеймс Кинг жил себе спокойно, пока его дело не рассмотрели в суде, предъявив обвинение в растрате государственного ... 7.8 10 4
Торрент: Зарегистрирован [2018-04-05 20:55] · скачан: 17 раз
Статус: √ проверено
Размер: 27.04 GB
Как cкачать? Как скачать Крепись! через торрент | UTorrent

% Раздел Тема Автор DL S | L
Фильмы 2015 [DVDrip, WEB-DLRip, HDrip] [ 1.42 GB ] Крепись! / Get Hard | iTunes | BDRip-AVC от potroks potroks Скачать
1 | 0
Фильмы 2015 [DVDrip, WEB-DLRip, HDrip] [ 700 MB ] Крепись! | iTunes | 2015, комедия, криминал, НDRip / iTunes Ворон Скачать
1 | 0
Фильмы 2015 [DVDrip, WEB-DLRip, HDrip] [ 1.41 GB ] Крепись! | Лицензия | BDRip MVO [Лицензия / iTunes Twi7ter Скачать
1 | 0
Фильмы с авторской озвучкой [ 1.45 GB ] Крепись! | | HDRip, Авторский (одноголосый Ворон Скачать
1 | 0
Фильмы 2015 [DVDrip, WEB-DLRip, HDrip] [ 1.45 GB ] Крепись! | Лицензия | HDRip MVO [Лицензия / iTunes Ворон Скачать
1 | 0
Фильмы без перевода [ 37.33 GB ] Крепись! | | 1080p killermax2013 Скачать
1 | 0
Фильмы с авторской озвучкой [ 14.08 GB ] Крепись! | | 1080p, Авторский (одноголосый Ворон Скачать
1 | 0

28-11-2019 20:33  


Отключить вcю реклaмy на сайте, в т.ч. и в плеере онлайн просмотра!

    Дорогой пользователь! Огромная просьба, поблагодарите релизера, оцените раздачу и оставьте свои комментарий, если Вы скачали Крепись! через торрент бесплатно!!
    Комментировать посты могут только пользователи прошедшие не сложную регистрацию
    Показать сообщения:    


    Крепись! через торрент
    Скачать бесплатно Крепись!
    Крепись! скачать торрент
    Крепись! смотреть онлайн
    Cкачать фильм Крепись! бесплатно
    Крепись! скачать торрент в хорошем качестве
    Крепись! смотреть онлайн бесплатно в хорошем качестве
    Вы не можете начинать темы
    Вы не можете отвечать на сообщения
    Вы не можете редактировать свои сообщения
    Вы не можете удалять свои сообщения
    Вы не можете голосовать в опросах
    Вы не можете прикреплять файлы к сообщениям
    Вы можете скачивать файлы
    Крепись! / Get Hard [2015, комедия, UHD WEBRip 2160p] MVO [Лицензия / iTunes] [Театральная версия] смотреть онлайн, скачать торрент picoco.icu