Достать ножи: Стеклянная луковица

MVO

Добыча

Дубляж

Уэнсдэй

1 сезон

Тор

Дубляж

13 клиническая

1 сезон

Жестокая ночь

MVO

Одни из нас

1 сезон

Deluxe

pack

Рекомендуем

30

Пиратка

ВАЖНО

ВАЖНО

Ghostwire

Пиратка

jed

RePack

nioh2

RePack

RDR2

RePack

NEED FOR SPEED™ PAYBACK

RePack

скачать торрент

Кинопоиск HD

Острые козырьки 6 сезон

6 сезон

FAR CRY 6

RePack

скачать торрент

Лицензия

скачать торрент

MVO

1

1 сезон

скачать торрент

1 сезон

скачать торрент

Лицензия

  

Джон Уик 2 / John Wick: Chapter Two (Чад Стахелски) [2017, боевик, триллер, криминал, UHD BDRip 2160p] [SDR] Дубляж (rus, ukr) + 2xAVO

Джон Уик 2 через торрент 5050.piratbit.fun

Размер: 31.64 GB | Добавлен: 4 года 9 мес. назад | Торрент скачан:94 раза
Смотреть онлайн | Скачать | Поддержите нас   

10-04-2018 07:48 Джон Уик 2 Скачать торрент  

Джон Уик 2 / John Wick: Chapter Two

Год выпуска: 2017
Страна: США, Гонконг
Жанр: боевик, триллер, криминал
Продолжительность: 02:02:23
Перевод: Дублированный, авторский
Субтитры: русские (полные + форс.), английские (Full + SDH + SDH-Colored), Spanish (FORCED-PGS), French (FORCED-PGS)
Режиссер: Чад Стахелски
В ролях:

Киану Ривз, Риккардо Скамарчо, Иэн МакШейн, Руби Роуз, Коммон, Клаудия Джерини, Лэнс Реддик, Лоренс Фишбёрн, Тобиаш Сигал, Джон Легуизамо, Бриджет Мойнэхэн, Томас Садоски
Описание:
Когда бывший коллега Джона решает взять под свой контроль таинственную гильдию убийц, Уик вынужден выйти из отставки. Ведомый кровавой клятвой Джон отправляется в Рим, где ему придется сразиться с одними из самых опасных киллеров в мире.
Рейтинг:

MPAA: R - Лицам до 17 лет обязательно присутствие взрослого
Качество: UHD BDRip 2160p
Формат: MKV
Видео: MPEG-4 AVC, 25200 Кбит/с, 3840x1600, 23.976 кадр/с
Аудио#1: AC3 / 5.1 / 48 kHz / 384 kbps / 16 bit | Дубляж
Аудио#2: AC3 / 5.1 / 48 kHz / 640 kbps / 16 bit | Д.Есарев
Аудио#3: AC3 / 5.1 / 48 kHz / 640 kbps / 16 bit | А.Матвеев
Аудио#1: AC3 / 5.1 / 48 kHz / 384 kbps / 16 bit | DUB_Ukrainian
Аудио#4: AC3 / 5.1 / 48 kHz / 640 kbps / 16 bit | ENG
Аудио#5: Atmos / TrueHD / 7.1 / 48 kHz / 4603 kbps / 16 bit | ENG
Аудио#6: DTS-HD MA / 7.1 / 48 kHz / 4459 kbps / 16 bit | ENG
Навигация по главам: есть
Профиль формата: [email protected]_8 ми-битный SDR
Общее
Уникальный идентификатор : 244995199062138840576419398897278681998 (0xB8505BE81C82F51CAFA6319D0B7C838E)
Полное имя : D:\Новая папкаVid\Новая_Мои раздачи\John.Wick.Chapter.2.2017.2160p.BluRay.SDR.8bit.UHD.BDRip.x264.Master5.mkv
Формат : Matroska
Версия формата : Version 4 / Version 2
Размер файла : 31,6 Гбайт
Продолжительность : 2 ч. 2 м.
Режим общего битрейта : Переменный
Общий поток : 37,0 Мбит/сек
Название фильма : John.Wick.Chapter.2.2017.2160p.BluRay.SDR.8bit.UHD.BDRip.x264.Master5
Дата кодирования : UTC 2017-10-11 05:04:39
Программа кодирования : mkvmerge v8.1.0 ('Psychedelic Postcard') 32bit
Библиотека кодирования : libebml v1.3.1 + libmatroska v1.4.2
Обложка : Yes
Attachments : cover.jpg

Видео
Идентификатор : 1
Формат : AVC
Формат/Информация : Advanced Video Codec
Профиль формата : [email protected]
Параметр CABAC формата : Да
Параметр ReFrames формата : 5 кадров
Идентификатор кодека : V_MPEG4/ISO/AVC
Продолжительность : 2 ч. 2 м.
Битрейт : 25,2 Мбит/сек
Ширина : 3840 пикселей
Высота : 1600 пикселей
Соотношение сторон : 2,40:1
Режим частоты кадров : Постоянный
Частота кадров : 23,976 (24000/1001) кадра/сек
Цветовое пространство : YUV
Субдискретизация насыщенности : 4:2:0
Битовая глубина : 8 бит
Тип развёртки : Прогрессивная
Бит/(Пиксели*Кадры) : 0.171
Размер потока : 21,5 Гбайт (68%)
Заголовок : John.Wick.Chapter.2.2017.2160p.BluRay.SDR.8bit.UHD.BDRip.x264.Master5
Библиотека кодирования : x264 core 148 r2748 97eaef2
Настройки программы : cabac=1 / ref=5 / deblock=1:-1:-1 / analyse=0x3:0x113 / me=umh / subme=10 / psy=1 / psy_rd=1.00:0.15 / mixed_ref=1 / me_range=48 / chroma_me=1 / trellis=2 / 8x8dct=1 / cqm=0 / deadzone=21,11 / fast_pskip=1 / chroma_qp_offset=-3 / threads=50 / lookahead_threads=4 / sliced_threads=0 / nr=0 / decimate=0 / interlaced=0 / bluray_compat=0 / constrained_intra=0 / bframes=3 / b_pyramid=2 / b_adapt=2 / b_bias=0 / direct=3 / weightb=1 / open_gop=0 / weightp=2 / keyint=250 / keyint_min=23 / scenecut=40 / intra_refresh=0 / rc_lookahead=50 / rc=crf / mbtree=1 / crf=18.0 / qcomp=0.60 / qpmin=0 / qpmax=69 / qpstep=4 / ip_ratio=1.40 / aq=1:1.00
Язык : English
Default : Да
Forced : Нет

Аудио #1
Идентификатор : 2
Формат : Atmos / TrueHD
Идентификатор кодека : A_TRUEHD
Продолжительность : 2 ч. 2 м.
Вид битрейта : Переменный
Битрейт : 4603 Кбит/сек
Максимальный битрейт : 7806 Кбит/сек
Каналы : Object Based / 8 каналов
Расположение каналов : Object Based / Front: L C R, Side: L R, Back: L R, LFE
Частота : / 48,0 КГц
Частота кадров : 1200,000 кадров/сек (40 spf)
Метод сжатия : Без потерь
Задержка видео : 32 мс.
Размер потока : 3,93 Гбайт (12%)
Язык : English
Default : Нет
Forced : Нет

Аудио #2
Идентификатор : 3
Формат : DTS
Формат/Информация : Digital Theater Systems
Профиль формата : MA / Core
Режим : 16
Параметр Endianness формата : Big
Идентификатор кодека : A_DTS
Продолжительность : 2 ч. 2 м.
Вид битрейта : Переменный / Постоянный
Битрейт : 4459 Кбит/сек / 1509 Кбит/сек
Каналы : 8 каналов / 6 каналов
Расположение каналов : Front: L C R, Side: L R, Back: L R, LFE / Front: L C R, Side: L R, LFE
Частота : 48,0 КГц
Частота кадров : 93,750 кадра/сек (512 spf)
Битовая глубина : 24 бит
Метод сжатия : Без потерь / Lossy
Размер потока : 3,81 Гбайт (12%)
Язык : English
Default : Нет
Forced : Нет

Аудио #3
Идентификатор : 6
Формат : AC-3
Формат/Информация : Audio Coding 3
Расширение режима : CM (complete main)
Параметр Endianness формата : Big
Идентификатор кодека : A_AC3
Продолжительность : 2 ч. 2 м.
Вид битрейта : Постоянный
Битрейт : 384 Кбит/сек
Каналы : 6 каналов
Расположение каналов : Front: L C R, Side: L R, LFE
Частота : 48,0 КГц
Частота кадров : 31,250 кадров/сек (1536 spf)
Метод сжатия : С потерями
Размер потока : 336 Мбайт (1%)
Заголовок : Дубляж | DD 5.1 @ 384 kbps
Язык : Russian
Default : Да
Forced : Нет

Аудио #4
Идентификатор : 7
Формат : AC-3
Формат/Информация : Audio Coding 3
Расширение режима : CM (complete main)
Параметр Endianness формата : Big
Идентификатор кодека : A_AC3
Продолжительность : 2 ч. 2 м.
Вид битрейта : Постоянный
Битрейт : 640 Кбит/сек
Каналы : 6 каналов
Расположение каналов : Front: L C R, Side: L R, LFE
Частота : 48,0 КГц
Частота кадров : 31,250 кадров/сек (1536 spf)
Метод сжатия : С потерями
Размер потока : 560 Мбайт (2%)
Заголовок : AVO | DD 5.1 @ 640 kbps - D.Yesarev
Язык : Russian
Default : Нет
Forced : Нет

Аудио #5
Идентификатор : 8
Формат : AC-3
Формат/Информация : Audio Coding 3
Расширение режима : CM (complete main)
Параметр Endianness формата : Big
Идентификатор кодека : A_AC3
Продолжительность : 2 ч. 2 м.
Вид битрейта : Постоянный
Битрейт : 640 Кбит/сек
Каналы : 6 каналов
Расположение каналов : Front: L C R, Side: L R, LFE
Частота : 48,0 КГц
Частота кадров : 31,250 кадров/сек (1536 spf)
Метод сжатия : С потерями
Размер потока : 560 Мбайт (2%)
Заголовок : AVO | DD 5.1 @ 640 kbps - A.Matveev
Язык : Russian
Default : Нет
Forced : Нет

Аудио #6
Идентификатор : 9
Формат : AC-3
Формат/Информация : Audio Coding 3
Расширение режима : CM (complete main)
Параметр Endianness формата : Big
Идентификатор кодека : A_AC3
Продолжительность : 2 ч. 2 м.
Вид битрейта : Постоянный
Битрейт : 640 Кбит/сек
Каналы : 6 каналов
Расположение каналов : Front: L C R, Side: L R, LFE
Частота : 48,0 КГц
Частота кадров : 31,250 кадров/сек (1536 spf)
Метод сжатия : С потерями
Размер потока : 560 Мбайт (2%)
Заголовок : Original | DD 5.1 @ 640 kbps
Язык : English
Default : Нет
Forced : Нет

Аудио #7
Идентификатор : 15
Формат : AC-3
Формат/Информация : Audio Coding 3
Расширение режима : CM (complete main)
Параметр Endianness формата : Big
Идентификатор кодека : A_AC3
Продолжительность : 2 ч. 2 м.
Вид битрейта : Постоянный
Битрейт : 384 Кбит/сек
Каналы : 6 каналов
Расположение каналов : Front: L C R, Side: L R, LFE
Частота : 48,0 КГц
Частота кадров : 31,250 кадров/сек (1536 spf)
Метод сжатия : С потерями
Размер потока : 336 Мбайт (1%)
Язык : Ukrainian
Default : Нет
Forced : Нет

Текст #1
Идентификатор : 4
Формат : PGS
Режим смешивания : zlib
Идентификатор кодека : S_HDMV/PGS
Идентификатор кодека/Информация : Picture based subtitle format used on BDs/HD-DVDs
Продолжительность : 1 ч. 52 м.
Битрейт : 7895 бит/сек
Count of elements : 1442
Размер потока : 6,36 Мбайт (0%)
Заголовок : FORCED-PGS
Язык : Spanish
Default : Нет
Forced : Нет

Текст #2
Идентификатор : 5
Формат : PGS
Режим смешивания : zlib
Идентификатор кодека : S_HDMV/PGS
Идентификатор кодека/Информация : Picture based subtitle format used on BDs/HD-DVDs
Продолжительность : 1 ч. 39 м.
Битрейт : 346 бит/сек
Count of elements : 78
Размер потока : 253 Кбайт (0%)
Заголовок : French-FORCED-PGS
Язык : French
Default : Нет
Forced : Нет

Текст #3
Идентификатор : 10
Формат : UTF-8
Идентификатор кодека : S_TEXT/UTF8
Идентификатор кодека/Информация : UTF-8 Plain Text
Продолжительность : 1 ч. 53 м.
Битрейт : 0 бит/сек
Count of elements : 12
Размер потока : 743 байт (0%)
Заголовок : Forced
Язык : Russian
Default : Да
Forced : Нет

Текст #4
Идентификатор : 11
Формат : UTF-8
Идентификатор кодека : S_TEXT/UTF8
Идентификатор кодека/Информация : UTF-8 Plain Text
Продолжительность : 1 ч. 53 м.
Битрейт : 37 бит/сек
Count of elements : 500
Размер потока : 30,9 Кбайт (0%)
Заголовок : A.Matveev
Язык : Russian
Default : Нет
Forced : Нет

Текст #5
Идентификатор : 12
Формат : UTF-8
Идентификатор кодека : S_TEXT/UTF8
Идентификатор кодека/Информация : UTF-8 Plain Text
Продолжительность : 1 ч. 49 м.
Битрейт : 21 бит/сек
Count of elements : 669
Размер потока : 17,6 Кбайт (0%)
Заголовок : Full
Язык : English
Default : Нет
Forced : Нет

Текст #6
Идентификатор : 13
Формат : UTF-8
Идентификатор кодека : S_TEXT/UTF8
Идентификатор кодека/Информация : UTF-8 Plain Text
Продолжительность : 1 ч. 54 м.
Битрейт : 26 бит/сек
Count of elements : 931
Размер потока : 22,5 Кбайт (0%)
Заголовок : SDH
Язык : English
Default : Нет
Forced : Нет

Текст #7
Идентификатор : 14
Формат : UTF-8
Идентификатор кодека : S_TEXT/UTF8
Идентификатор кодека/Информация : UTF-8 Plain Text
Продолжительность : 1 ч. 54 м.
Битрейт : 37 бит/сек
Count of elements : 929
Размер потока : 31,8 Кбайт (0%)
Заголовок : SDH-Colored
Язык : English
Default : Нет
Forced : Нет

Меню
00:00:00.000 : en:Chapter 1
00:06:31.682 : en:Chapter 2
00:16:57.933 : en:Chapter 3
00:26:35.594 : en:Chapter 4
00:34:38.034 : en:Chapter 5
00:42:07.816 : en:Chapter 6
00:48:07.050 : en:Chapter 7
00:56:41.648 : en:Chapter 8
01:01:42.782 : en:Chapter 9
01:10:27.681 : en:Chapter 10
01:17:15.922 : en:Chapter 11
01:24:22.640 : en:Chapter 12
01:32:11.234 : en:Chapter 13
01:40:01.328 : en:Chapter 14
01:46:34.763 : en:Chapter 15
01:54:01.042 : en:Chapter 16



Скачать Джон Уик 2 через торрент http://i105.fastpic.ru/big/2018/0409/b8/04c0779945fce931d8fe58ef1912abb8.png Скачать, смотреть онлайн Джон Уик 2 бесплантно в хорошем качестве Описание: Когда бывший коллега Джона решает взять под свой контроль таинственную гильдию убийц, Уик вынужден выйти из отставки. Ведомый ... 10 10 5
Info! Золотая раздача, скачанное не засчитывается.
Торрент: Зарегистрирован [2018-04-10 07:48] · скачан: 94 раз
Статус: √ проверено
Размер: 31.64 GB
Как cкачать? Как скачать Джон Уик 2 через торрент | UTorrent

% Раздел Тема Автор DL S | L
Ultra HD (UHD: 2K, 4K, 8K) [ 97.3 GB ] Джон Уик 2 / John Wick: Chapter Two | DUB + 2xAVO | 2160p sheker187 Скачать
1 | 0
Ultra HD (UHD: 2K, 4K, 8K) [ 17.79 GB ] Джон Уик 2 / John Wick: Chapter Two | DUB + 5xAVO | 2160p sheker187 Скачать
1 | 0
Ultra HD (UHD: 2K, 4K, 8K) [ 85.89 GB ] Джон Уик 2 / John Wick: Chapter Two | DUB + 4xAVO | 2160p sheker187 Скачать
1 | 0
Фильмы [HD 720p, 1080p] (Хороший звук DUB, MVO) [ 8.07 GB ] Джон Уик 2 / John Wick: Chapter Two | Лицензия | 720p bober100 Скачать
1 | 0
Фильмы (Blu-ray, BD-Remux, HDDVD) [ 41.39 GB ] Джон Уик 2 / John Wick: Chapter Two | Лицензия | BD Remux 1080p bober100 Скачать
1 | 0
Ultra HD (UHD: 2K, 4K, 8K) [ 82.83 GB ] Джон Уик 2 / John Wick: Chapter Two | Лицензия | BDRemux 2160 bober100 Скачать
1 | 0
Фильмы [HD 720p, 1080p] (Хороший звук DUB, MVO) [ 15.93 GB ] Джон Уик 2 / John Wick: Chapter Two | Лицензия | 1080p bober100 Скачать
1 | 0

28-11-2019 20:33  


Отключить вcю реклaмy на сайте, в т.ч. и в плеере онлайн просмотра!

    Дорогой пользователь! Огромная просьба, поблагодарите релизера, оцените раздачу и оставьте свои комментарий, если Вы скачали Джон Уик 2 через торрент бесплатно!!
    Комментировать посты могут только пользователи прошедшие не сложную регистрацию
    Показать сообщения:    


    Джон Уик 2 через торрент
    Скачать бесплатно Джон Уик 2
    Джон Уик 2 скачать торрент
    Джон Уик 2 смотреть онлайн
    Cкачать фильм Джон Уик 2 бесплатно
    Джон Уик 2 скачать торрент в хорошем качестве
    Джон Уик 2 смотреть онлайн бесплатно в хорошем качестве
    Вы не можете начинать темы
    Вы не можете отвечать на сообщения
    Вы не можете редактировать свои сообщения
    Вы не можете удалять свои сообщения
    Вы не можете голосовать в опросах
    Вы не можете прикреплять файлы к сообщениям
    Вы можете скачивать файлы
    Джон Уик 2 / John Wick: Chapter Two [2017, боевик, триллер, криминал, UHD BDRip 2160p] [SDR] Дубляж + 2xAVO смотреть онлайн, скачать торрент picoco.icu