Достать ножи: Стеклянная луковица

MVO

Добыча

Дубляж

Уэнсдэй

1 сезон

Тор

Дубляж

13 клиническая

1 сезон

Жестокая ночь

MVO

Одни из нас

1 сезон

Deluxe

pack

Рекомендуем

30

Пиратка

ВАЖНО

ВАЖНО

Ghostwire

Пиратка

jed

RePack

nioh2

RePack

RDR2

RePack

NEED FOR SPEED™ PAYBACK

RePack

скачать торрент

Кинопоиск HD

Острые козырьки 6 сезон

6 сезон

FAR CRY 6

RePack

скачать торрент

Лицензия

скачать торрент

MVO

1

1 сезон

скачать торрент

1 сезон

скачать торрент

Лицензия

  

Люси / Lucy (Люк Бессон) [2014, боевик, фантастика, UHD BDRemux 2160p] Дубляж + 2xAVO

Люси через торрент 5050.piratbit.fun

Размер: 57.6 GB | Добавлен: 4 года 9 мес. назад | Торрент скачан:35 раз
Смотреть онлайн | Скачать | Поддержите нас   

12-04-2018 06:45 Люси Скачать торрент  

Люси / Lucy«Она — ключ к тайнам Вселенной»
Год выпуска: 2014
Страна: Франция
Жанр: боевик, фантастика
Продолжительность: 01:29:28
Перевод: Дублированный (Лицензия BD CEE), Авторский (одноголосый, закадровый) (Ю. Немахов, А. Гаврилов)
Субтитры: Русские (Full length, Forced) Украинские (Full length, Forced), Английские (SDH)
Режиссер: Люк Бессон
В ролях:

Скарлетт Йоханссон (Lucy), Морган Фриман (Professor Norman), Чхве Мин-сик (Mr. Jang), Амр Вакед (Pierre Del Rio), Джулиан Райнд-Татт (The Limey), Йохан Филип Асбек (Richard), Анали Типтон (Caroline), Николас Фонгфет (Jii), Ян Оливер Шрёдер (German Mule), Лука Анджелетти (Italian Mule), Луи Брабант (Professor), Пьер Граммон (Professor)
Описание:
Еще вчера она была просто сексапильной блондинкой, а сегодня - самое опасное и смертоносное создание на планете со сверхъестественными способностями и интеллектом. То, что совсем недавно лучшие умы мира считали фантастической теорией, для нее стало реальностью. И теперь из добычи она превратится в охотницу.
Рейтинг:

MPAA: R - Лицам до 17 лет обязательно присутствие взрослого
Качество: UHD BDRemux 2160p
Формат: MKV
Видео: HEVC, HDR, 80.0 Мбит/с, 3840x2160
Аудио: DTS, 6 ch, 768 kbps - Русский, Дубляж
Аудио: DTS-HD MA, 8 ch, 5328 kbps - Русский, Ю. Немахов
Аудио: DTS, 6 ch, 768 kbps - Русский, А. Гаврилов
Аудио: Dolby Atmos TrueHD, 8 ch, 5206 kbps - Английский
Навигация по главам: есть
Знаете ли вы, что...
• Когда Люси находится на Таймс-сквер, за ее правым плечом виден щит с рекламой фильма «Малавита» (2013), режиссером которого также является Люк Бессон.
• Перед тем, как заканчивается автомобильная погоня, в кадре можно заметить пожилого мужчину, читающего газету. В верхней части главной страницы видна реклама фильма «Тихоокеанский рубеж» (2013).
• Режиссер Люк Бессон сыграл эпизодическую роль врача в больнице в Париже.
• В своем интервью Люк Бессон рассказал, что на реализацию этого проекта ушло 10 лет. Кроме того режиссер сказал, что он знал о том, что некоторые научные предположения были ошибочными, например то, что люди используют лишь 10 процентов своего мозга. Тем не менее, он сказал, что «такое предположение» должно быть отличным началом для научно-фантастического фильма.

Ошибки в фильме
• В фильме утверждается, что Люси была первым человеком. На самом деле в науке не существует понятия «первый человек» или любой другой первый представитель вида. Люси — это самая древняя из обнаруженных особей вида Австралопитек афарский.
• Во время сцены в автомобиле, когда Люси едет в университет, на приборной панели отображается, что ручка коробки передач находится в режиме «P» (Park), при этом показывается, что автомобиль движется на высокой скорости.
• Когда Люси вынимает пакет с препаратом из живота курьера во Франции, ее руки полностью перепачканы. В следующем кадре они садятся с полицейским в машину, и ее руки уже абсолютно чистые.
• В сцене воспоминаний коренных американцев показывают в Нью-Йорке. На самом деле это были индейцы Великих равнин, а не уроженцы Нью-Йорка. Кроме того, они ездят верхом на лошадях, что было принесено в Новый Свет европейцами.
• Когда Люси разговаривает с французской полицией, она говорит, что CPH4 имеет вид голубого порошка. На самом деле препарат представляет собой голубые кристаллы.
• Когда Люси звонит во французскую полицию, она уже прошла иммиграционный контроль. Но в следующем кадре она все еще не прошла паспортный контроль.
• На экстрадицию немецкого подозреваемого во Францию ушли бы недели. Также его выдаче должен в первую очередь предшествовать разговор с адвокатом.
• Когда изображение Люси появляется на HDTV в номере отеля, на нем видны строки развертки, которых не должно быть видно на HDTV. Кроме того ширина этих линий меняется при смене кадра.
• Нельзя использовать полицейское радио, чтобы перехватить звонок на мобильный телефон.
• Когда Люси отправляется в прошлое, она встречает динозавров. Затем она перемещается еще дальше в прошлое и встречает человекоподобное существо. Гуманоиды появились только спустя 64 миллиона лет после вымирания динозавров.
• Когда Люси видит, как распадаются ее клетки, она запирается в уборной самолета. Весь персонал самолета при этом умоляет ее открыть дверь. Любая стюардесса знает, что дверь туалета на борту самолета легко можно открыть снаружи за несколько секунд.
• Когда Люси катается по стене и потолку в тюремной камере, как будто отсутствует гравитация, видно, что ее футболка свисает не в том направлении в каждом кадре — по направлению к стене или потолку.
• Профессор Норман, герой Моргана Фримана, утверждает, что жизнь на Земле появилась 1 миллиард лет назад. На самом деле специалисты дают оценку в 3,7 миллиарда лет.
• Профессор Норман, герой Моргана Фримана, утверждает, что мозг человека используется только на 10% (15 миллиардов нейронов из 100). На самом деле это популярный миф: мозг используется на 100%, но не одновременно, а только по мере необходимости в тех или иных его отделах.
• Когда кожа Люси становится черной, видно ее полностью почерневшие руки. В следующем кадре снова показывают ее руки, но они все еще телесного цвета.
• Во время сцены, когда Люси переносится в Нью-Йорк, вокруг находится много народу, но её никто не замечает, и никому не кажется странным внезапное появление девушки из ниоткуда, и то, что она находится на офисном стуле посреди Тайм Сквер. Хотя, когда Люси переносится в эру динозавров, хищная особь её замечает сразу.
General
Unique ID : 201383887851457371847012818953408074915 (0x97812041142EBCB8930269C30303D4A3)
Complete name : LUCY_BD_UHD_REMUX-BLUEBIRD.mkv
Format : Matroska
Format version : Version 4 / Version 2
File size : 57.6 GiB
Duration : 1 h 29 min
Overall bit rate mode : Variable
Overall bit rate : 92.2 Mb/s
Movie name : LUCY_BD_UHD_REMUX-BLUEBIRD
Encoded date : UTC 2017-10-17 16:21:14
Writing application : mkvmerge v16.0.0 ('Protest') 64-bit
Writing library : libebml v1.3.5 + libmatroska v1.4.8
Cover : Yes
Attachments : cover.png

Video
ID : 1
Format : HEVC
Format/Info : High Efficiency Video Coding
Format profile : Main [email protected]@High
Codec ID : V_MPEGH/ISO/HEVC
Duration : 1 h 29 min
Bit rate : 80.0 Mb/s
Width : 3 840 pixels
Height : 2 160 pixels
Display aspect ratio : 16:9
Frame rate mode : Constant
Frame rate : 23.976 (24000/1001) FPS
Color space : YUV
Chroma subsampling : 4:2:0 (Type 2)
Bit depth : 10 bits
Bits/(Pixel*Frame) : 0.402
Stream size : 50.0 GiB (87%)
Title : LUCY_BD_UHD_REMUX-BLUEBIRD
Writing library : ATEME Titan KFE 3.7.3 (4.7.3.1003)
Default : Yes
Forced : No
Color range : Limited
Color primaries : BT.2020
Transfer characteristics : SMPTE ST 2084
Matrix coefficients : BT.2020 non-constant
Mastering display color primaries : R: x=0.680000 y=0.320000, G: x=0.265000 y=0.690000, B: x=0.150000 y=0.060000, White point: x=0.312700 y=0.329000
Mastering display luminance : min: 0.0050 cd/m2, max: 1000.0000 cd/m2
Maximum Content Light Level : 1000 cd/m2
Maximum Frame-Average Light Level : 400 cd/m2

Audio #1
ID : 2
Format : DTS
Format/Info : Digital Theater Systems
Mode : 16
Format settings, Endianness : Big
Codec ID : A_DTS
Duration : 1 h 29 min
Bit rate mode : Constant
Bit rate : 768 kb/s
Channel(s) : 6 channels
Channel positions : Front: L C R, Side: L R, LFE
Sampling rate : 48.0 kHz
Frame rate : 93.750 FPS (512 SPF)
Bit depth : 24 bits
Compression mode : Lossy
Stream size : 491 MiB (1%)
Title : [Дубляж] DTS 5.1 @ 768 kbps
Language : Russian
Default : No
Forced : No

Audio #2
ID : 3
Format : DTS
Format/Info : Digital Theater Systems
Format profile : MA / Core
Mode : 16
Format settings, Endianness : Big
Codec ID : A_DTS
Duration : 1 h 29 min
Bit rate mode : Variable / Constant
Bit rate : 5 328 kb/s / 1 509 kb/s
Channel(s) : 8 channels / 6 channels
Channel positions : Front: L C R, Side: L R, Back: L R, LFE / Front: L C R, Side: L R, LFE
Sampling rate : 48.0 kHz
Frame rate : 93.750 FPS (512 SPF)
Bit depth : 24 bits
Compression mode : Lossless / Lossy
Stream size : 3.33 GiB (6%)
Title : [VO] DTS-HD MA 7.1 @ 5329 kbps (Nemahov)
Language : Russian
Default : No
Forced : No

Audio #3
ID : 4
Format : DTS
Format/Info : Digital Theater Systems
Mode : 16
Format settings, Endianness : Big
Codec ID : A_DTS
Duration : 1 h 29 min
Bit rate mode : Constant
Bit rate : 768 kb/s
Channel(s) : 6 channels
Channel positions : Front: L C R, Side: L R, LFE
Sampling rate : 48.0 kHz
Frame rate : 93.750 FPS (512 SPF)
Bit depth : 24 bits
Compression mode : Lossy
Stream size : 491 MiB (1%)
Title : [VO] DTS 5.1 @ 768 kbps (Gavrilov)
Language : Russian
Default : No
Forced : No

Audio #4
ID : 5
Format : TrueHD
Format profile : TrueHD+Atmos / TrueHD
Codec ID : A_TRUEHD
Duration : 1 h 29 min
Bit rate mode : Variable
Bit rate : 5 206 kb/s
Maximum bit rate : 8 685 kb/s
Channel(s) : Object Based / 8 channels
Channel positions : Object Based / Front: L C R, Side: L R, Back: L R, LFE
Sampling rate : / 48.0 kHz
Frame rate : 1 200.000 FPS (40 SPF)
Compression mode : Lossless
Stream size : 3.25 GiB (6%)
Title : [ORIGINAL] ATMOS 7.1 @ 5206 kbps
Language : English
Default : No
Forced : No

Text #1
ID : 6
Format : UTF-8
Codec ID : S_TEXT/UTF8
Codec ID/Info : UTF-8 Plain Text
Duration : 1 h 21 min
Bit rate : 66 b/s
Count of elements : 777
Stream size : 39.2 KiB (0%)
Title : Full-length
Language : Russian
Default : No
Forced : No

Text #2
ID : 7
Format : UTF-8
Codec ID : S_TEXT/UTF8
Codec ID/Info : UTF-8 Plain Text
Duration : 1 h 20 min
Bit rate : 57 b/s
Count of elements : 777
Stream size : 34.2 KiB (0%)
Title : Full-length
Language : Ukrainian
Default : No
Forced : No

Text #3
ID : 8
Format : PGS
Codec ID : S_HDMV/PGS
Codec ID/Info : Picture based subtitle format used on BDs/HD-DVDs
Duration : 1 h 20 min
Bit rate : 30.1 kb/s
Count of elements : 1910
Stream size : 17.4 MiB (0%)
Title : SDH
Language : English
Default : No
Forced : No

Text #4
ID : 9
Format : UTF-8
Codec ID : S_TEXT/UTF8
Codec ID/Info : UTF-8 Plain Text
Duration : 1 h 17 min
Bit rate : 4 b/s
Count of elements : 67
Stream size : 2.61 KiB (0%)
Title : Forced
Language : Russian
Default : Yes
Forced : Yes

Text #5
ID : 10
Format : UTF-8
Codec ID : S_TEXT/UTF8
Codec ID/Info : UTF-8 Plain Text
Duration : 1 h 17 min
Bit rate : 4 b/s
Count of elements : 67
Stream size : 2.65 KiB (0%)
Title : Forced
Language : Ukrainian
Default : No
Forced : No

Menu
00:00:00.000 : en:Chapter 01
00:05:26.368 : en:Chapter 02
00:08:38.268 : en:Chapter 03
00:15:45.570 : en:Chapter 04
00:21:36.295 : en:Chapter 05
00:26:05.397 : en:Chapter 06
00:30:27.534 : en:Chapter 07
00:37:36.254 : en:Chapter 08
00:41:43.459 : en:Chapter 09
00:47:32.558 : en:Chapter 10
00:50:10.716 : en:Chapter 11
00:55:32.496 : en:Chapter 12
00:59:36.072 : en:Chapter 13
01:02:08.099 : en:Chapter 14
01:04:51.346 : en:Chapter 15
01:07:14.030 : en:Chapter 16
01:09:55.817 : en:Chapter 17
01:12:26.133 : en:Chapter 18
01:18:50.601 : en:Chapter 19
01:22:31.572 : en:Chapter 20



Скачать Люси через торрент http://i105.fastpic.ru/big/2018/0412/c8/cd3ee8dab7cc2e1cbc6c3eb2da0879c8.png Скачать, смотреть онлайн Люси бесплантно в хорошем качестве Описание: Еще вчера она была просто сексапильной блондинкой, а сегодня - самое опасное и смертоносное создание на планете со ... 10 10 5
Торрент: Зарегистрирован [2018-04-12 06:45] · скачан: 35 раз
Статус: √ проверено
Размер: 57.6 GB
Как cкачать? Как скачать Люси через торрент | UTorrent

28-11-2019 20:33  


Отключить вcю реклaмy на сайте, в т.ч. и в плеере онлайн просмотра!

    Дорогой пользователь! Огромная просьба, поблагодарите релизера, оцените раздачу и оставьте свои комментарий, если Вы скачали Люси через торрент бесплатно!!
    Комментировать посты могут только пользователи прошедшие не сложную регистрацию
    Показать сообщения:    


    Люси через торрент
    Скачать бесплатно Люси
    Люси скачать торрент
    Люси смотреть онлайн
    Cкачать фильм Люси бесплатно
    Люси скачать торрент в хорошем качестве
    Люси смотреть онлайн бесплатно в хорошем качестве
    Вы не можете начинать темы
    Вы не можете отвечать на сообщения
    Вы не можете редактировать свои сообщения
    Вы не можете удалять свои сообщения
    Вы не можете голосовать в опросах
    Вы не можете прикреплять файлы к сообщениям
    Вы можете скачивать файлы
    Люси / Lucy [2014, боевик, фантастика, UHD BDRemux 2160p] Дубляж + 2xAVO смотреть онлайн, скачать торрент picoco.icu