Достать ножи: Стеклянная луковица

MVO

Добыча

Дубляж

Уэнсдэй

1 сезон

Тор

Дубляж

13 клиническая

1 сезон

Жестокая ночь

MVO

Одни из нас

1 сезон

Deluxe

pack

Рекомендуем

30

Пиратка

ВАЖНО

ВАЖНО

Ghostwire

Пиратка

jed

RePack

nioh2

RePack

RDR2

RePack

NEED FOR SPEED™ PAYBACK

RePack

скачать торрент

Кинопоиск HD

Острые козырьки 6 сезон

6 сезон

FAR CRY 6

RePack

скачать торрент

Лицензия

скачать торрент

MVO

1

1 сезон

скачать торрент

1 сезон

скачать торрент

Лицензия

  

Люси / Lucy (Люк Бессон) [2014, боевик, фантастика, UHD BDRip 2160p] Дубляж (rus, ukr)+ 2xAVO

Люси через торрент 5050.piratbit.fun

Размер: 24.05 GB | Добавлен: 4 года 9 мес. назад | Торрент скачан:67 раз
Смотреть онлайн | Скачать | Поддержите нас   

13-04-2018 03:26 Люси Скачать торрент  

Люси / Lucy«Она — ключ к тайнам Вселенной»
Год выпуска: 2014
Страна: Франция
Жанр: боевик, фантастика
Продолжительность: 01:29:20
Перевод: Дублированный, авторский
Субтитры: Russian (Forced), Russian, Ukrainian (Forced), English (SDH), English (SDH-COLORED)
Режиссер: Люк Бессон
В ролях:

Скарлетт Йоханссон (Lucy), Морган Фриман (Professor Norman), Чхве Мин-сик (Mr. Jang), Амр Вакед (Pierre Del Rio), Джулиан Райнд-Татт (The Limey), Йохан Филип Асбек (Richard), Анали Типтон (Caroline), Николас Фонгфет (Jii), Ян Оливер Шрёдер (German Mule), Лука Анджелетти (Italian Mule), Луи Брабант (Professor), Пьер Граммон (Professor)
Описание:
Еще вчера она была просто сексапильной блондинкой, а сегодня - самое опасное и смертоносное создание на планете со сверхъестественными способностями и интеллектом. То, что совсем недавно лучшие умы мира считали фантастической теорией, для нее стало реальностью. И теперь из добычи она превратится в охотницу.
Рейтинг:

MPAA: R - Лицам до 17 лет обязательно присутствие взрослого
Качество: UHD BDRip 2160p
Контейнер: MKV
Видео: MPEG-4 AVC, 34500 Кбит/с, 3840x1606, 23.976 кадр/с
Aудио#1: Russian: 48 kHz, AC3, 3/2 (L,C,R,l,r) + LFE ch, 768.00 kbps avg |Дубляж, Blu-ray CEE|
Aудио#2: Russian: 48 kHz, DTS, 3/2 (L,C,R,l,r) + LFE ch, 448.00 kbps avg |Дубляж, Blu-ray CEE|
Aудио#3: Ukrainian: 48 kHz, AAC, 3/2 (L,C,R,l,r) + LFE ch, 192.00 kbps avg |Дубляж, DVD R5|
Aудио#4: Russian: 48 kHz, DTS, 3/2 (L,C,R,l,r) + LFE ch, 448.00 kbps avg |Одноголосый закадровый, Гаврилов|
Аудио#5: Russian: 48 kHz, DTS, 3/2 (L,C,R,l,r) + LFE ch, 1509.00 kbps avg |Одноголосый закадровый, Немахов|
Аудио#6: English: 48 kHz, AC3, 3/2 (L,C,R,l,r) + LFE ch, 640.00 kbps avg
Главы: Есть
Профиль формата: [email protected]_8 ми-битный SDR
Знаете ли вы, что...
• Когда Люси находится на Таймс-сквер, за ее правым плечом виден щит с рекламой фильма «Малавита» (2013), режиссером которого также является Люк Бессон.
• Перед тем, как заканчивается автомобильная погоня, в кадре можно заметить пожилого мужчину, читающего газету. В верхней части главной страницы видна реклама фильма «Тихоокеанский рубеж» (2013).
• Режиссер Люк Бессон сыграл эпизодическую роль врача в больнице в Париже.
• В своем интервью Люк Бессон рассказал, что на реализацию этого проекта ушло 10 лет. Кроме того режиссер сказал, что он знал о том, что некоторые научные предположения были ошибочными, например то, что люди используют лишь 10 процентов своего мозга. Тем не менее, он сказал, что «такое предположение» должно быть отличным началом для научно-фантастического фильма.

Ошибки в фильме
• В фильме утверждается, что Люси была первым человеком. На самом деле в науке не существует понятия «первый человек» или любой другой первый представитель вида. Люси — это самая древняя из обнаруженных особей вида Австралопитек афарский.
• Во время сцены в автомобиле, когда Люси едет в университет, на приборной панели отображается, что ручка коробки передач находится в режиме «P» (Park), при этом показывается, что автомобиль движется на высокой скорости.
• Когда Люси вынимает пакет с препаратом из живота курьера во Франции, ее руки полностью перепачканы. В следующем кадре они садятся с полицейским в машину, и ее руки уже абсолютно чистые.
• В сцене воспоминаний коренных американцев показывают в Нью-Йорке. На самом деле это были индейцы Великих равнин, а не уроженцы Нью-Йорка. Кроме того, они ездят верхом на лошадях, что было принесено в Новый Свет европейцами.
• Когда Люси разговаривает с французской полицией, она говорит, что CPH4 имеет вид голубого порошка. На самом деле препарат представляет собой голубые кристаллы.
• Когда Люси звонит во французскую полицию, она уже прошла иммиграционный контроль. Но в следующем кадре она все еще не прошла паспортный контроль.
• На экстрадицию немецкого подозреваемого во Францию ушли бы недели. Также его выдаче должен в первую очередь предшествовать разговор с адвокатом.
• Когда изображение Люси появляется на HDTV в номере отеля, на нем видны строки развертки, которых не должно быть видно на HDTV. Кроме того ширина этих линий меняется при смене кадра.
• Нельзя использовать полицейское радио, чтобы перехватить звонок на мобильный телефон.
• Когда Люси отправляется в прошлое, она встречает динозавров. Затем она перемещается еще дальше в прошлое и встречает человекоподобное существо. Гуманоиды появились только спустя 64 миллиона лет после вымирания динозавров.
• Когда Люси видит, как распадаются ее клетки, она запирается в уборной самолета. Весь персонал самолета при этом умоляет ее открыть дверь. Любая стюардесса знает, что дверь туалета на борту самолета легко можно открыть снаружи за несколько секунд.
• Когда Люси катается по стене и потолку в тюремной камере, как будто отсутствует гравитация, видно, что ее футболка свисает не в том направлении в каждом кадре — по направлению к стене или потолку.
• Профессор Норман, герой Моргана Фримана, утверждает, что жизнь на Земле появилась 1 миллиард лет назад. На самом деле специалисты дают оценку в 3,7 миллиарда лет.
• Профессор Норман, герой Моргана Фримана, утверждает, что мозг человека используется только на 10% (15 миллиардов нейронов из 100). На самом деле это популярный миф: мозг используется на 100%, но не одновременно, а только по мере необходимости в тех или иных его отделах.
• Когда кожа Люси становится черной, видно ее полностью почерневшие руки. В следующем кадре снова показывают ее руки, но они все еще телесного цвета.
• Во время сцены, когда Люси переносится в Нью-Йорк, вокруг находится много народу, но её никто не замечает, и никому не кажется странным внезапное появление девушки из ниоткуда, и то, что она находится на офисном стуле посреди Тайм Сквер. Хотя, когда Люси переносится в эру динозавров, хищная особь её замечает сразу.
Общее
Уникальный идентификатор : 178298210049936736870206871179684480997 (0x8622FC76118710AA9AF90112653407E5)
Полное имя : D:\Новая папкаVid\Новая_Мои раздачи\Lucy.2014.2160p.BluRay.SDR.8bit.UHD.4K.BDRip.x264.Master5.mkv
Формат : Matroska
Версия формата : Version 4 / Version 2
Размер файла : 24,1 Гбайт
Продолжительность : 1 ч. 29 м.
Режим общего битрейта : Переменный
Общий поток : 38,5 Мбит/сек
Название фильма : Lucy.2014.2160p.BluRay.SDR.8bit.UHD.4K.BDRip.x264.Master5
Дата кодирования : UTC 2017-11-29 16:13:31
Программа кодирования : mkvmerge v8.1.0 ('Psychedelic Postcard') 32bit
Библиотека кодирования : libebml v1.3.1 + libmatroska v1.4.2
Обложка : Yes
Attachments : cover.jpg / poster.jpg / CoverCommander.jpg

Видео
Идентификатор : 1
Формат : AVC
Формат/Информация : Advanced Video Codec
Профиль формата : [email protected]
Параметр CABAC формата : Да
Параметр ReFrames формата : 5 кадров
Идентификатор кодека : V_MPEG4/ISO/AVC
Продолжительность : 1 ч. 29 м.
Битрейт : 34,5 Мбит/сек
Ширина : 3840 пикселей
Высота : 1600 пикселей
Соотношение сторон : 2,40:1
Режим частоты кадров : Постоянный
Частота кадров : 23,976 (24000/1001) кадра/сек
Цветовое пространство : YUV
Субдискретизация насыщенности : 4:2:0
Битовая глубина : 8 бит
Тип развёртки : Прогрессивная
Бит/(Пиксели*Кадры) : 0.235
Размер потока : 21,6 Гбайт (90%)
Заголовок : Lucy.2014.2160p.BluRay.SDR.8bit.UHD.4K.BDRip.x264.Master5
Библиотека кодирования : x264 core 148 r2748 97eaef2
Настройки программы : cabac=1 / ref=5 / deblock=1:-1:-1 / analyse=0x3:0x113 / me=umh / subme=10 / psy=1 / psy_rd=1.00:0.15 / mixed_ref=1 / me_range=48 / chroma_me=1 / trellis=2 / 8x8dct=1 / cqm=0 / deadzone=21,11 / fast_pskip=1 / chroma_qp_offset=-3 / threads=50 / lookahead_threads=4 / sliced_threads=0 / nr=0 / decimate=0 / interlaced=0 / bluray_compat=0 / constrained_intra=0 / bframes=3 / b_pyramid=2 / b_adapt=2 / b_bias=0 / direct=3 / weightb=1 / open_gop=0 / weightp=2 / keyint=250 / keyint_min=23 / scenecut=40 / intra_refresh=0 / rc_lookahead=50 / rc=crf / mbtree=1 / crf=18.0 / qcomp=0.60 / qpmin=0 / qpmax=69 / qpstep=4 / ip_ratio=1.40 / aq=1:1.00
Язык : English
Default : Да
Forced : Нет

Аудио #1
Идентификатор : 2
Формат : AC-3
Формат/Информация : Audio Coding 3
Расширение режима : CM (complete main)
Параметр Endianness формата : Big
Идентификатор кодека : A_AC3
Продолжительность : 1 ч. 29 м.
Вид битрейта : Постоянный
Битрейт : 640 Кбит/сек
Каналы : 6 каналов
Расположение каналов : Front: L C R, Side: L R, LFE
Частота : 48,0 КГц
Частота кадров : 31,250 кадров/сек (1536 spf)
Метод сжатия : С потерями
Задержка видео : 31 мс.
Размер потока : 410 Мбайт (2%)
Язык : English
Default : Нет
Forced : Нет

Аудио #2
Идентификатор : 3
Формат : DTS
Формат/Информация : Digital Theater Systems
Режим : 16
Параметр Endianness формата : Big
Идентификатор кодека : A_DTS
Продолжительность : 1 ч. 29 м.
Вид битрейта : Постоянный
Битрейт : 768 Кбит/сек
Каналы : 6 каналов
Расположение каналов : Front: L C R, Side: L R, LFE
Частота : 48,0 КГц
Частота кадров : 93,750 кадра/сек (512 spf)
Битовая глубина : 24 бит
Метод сжатия : С потерями
Задержка видео : 11 мс.
Размер потока : 491 Мбайт (2%)
Заголовок : Дубляж- Blu-ray CEE
Язык : Russian
Default : Нет
Forced : Нет

Аудио #3
Идентификатор : 4
Формат : AC-3
Формат/Информация : Audio Coding 3
Расширение режима : CM (complete main)
Параметр Endianness формата : Big
Идентификатор кодека : A_AC3
Продолжительность : 1 ч. 29 м.
Вид битрейта : Постоянный
Битрейт : 448 Кбит/сек
Каналы : 6 каналов
Расположение каналов : Front: L C R, Side: L R, LFE
Частота : 48,0 КГц
Частота кадров : 31,250 кадров/сек (1536 spf)
Метод сжатия : С потерями
Размер потока : 286 Мбайт (1%)
Заголовок : дубляж
Язык : Russian
Default : Да
Forced : Да

Аудио #4
Идентификатор : 5
Формат : AC-3
Формат/Информация : Audio Coding 3
Расширение режима : CM (complete main)
Параметр Endianness формата : Big
Идентификатор кодека : A_AC3
Продолжительность : 1 ч. 29 м.
Вид битрейта : Постоянный
Битрейт : 448 Кбит/сек
Каналы : 6 каналов
Расположение каналов : Front: L C R, Side: L R, LFE
Частота : 48,0 КГц
Частота кадров : 31,250 кадров/сек (1536 spf)
Метод сжатия : С потерями
Задержка видео : 1 с. 0 мс.
Размер потока : 286 Мбайт (1%)
Заголовок : Авторский А.Гаврилов
Язык : Russian
Default : Нет
Forced : Нет

Аудио #5
Идентификатор : 6
Формат : DTS
Формат/Информация : Digital Theater Systems
Режим : 16
Параметр Endianness формата : Big
Идентификатор кодека : A_DTS
Продолжительность : 1 ч. 29 м.
Вид битрейта : Постоянный
Битрейт : 1509 Кбит/сек
Каналы : 6 каналов
Расположение каналов : Front: L C R, Side: L R, LFE
Частота : 48,0 КГц
Частота кадров : 93,750 кадра/сек (512 spf)
Битовая глубина : 24 бит
Метод сжатия : С потерями
Задержка видео : 11 мс.
Размер потока : 964 Мбайт (4%)
Заголовок : авторский немахов
Язык : Russian
Default : Нет
Forced : Нет

Аудио #6
Идентификатор : 7
Формат : Vorbis
Параметр Floor формата : 1
Идентификатор кодека : A_VORBIS
Продолжительность : 1 ч. 29 м.
Вид битрейта : Переменный
Битрейт : 192 Кбит/сек
Каналы : 2 канала
Частота : 48,0 КГц
Частота кадров : 59,202 кадров/сек (811 spf)
Метод сжатия : С потерями
Размер потока : 77,0 Мбайт (0%)
Заголовок : дубляж ( line )
Программа кодирования : Lavc56.1.100 libvorbis
Библиотека кодирования : Lavf56.4.101
Язык : Ukrainian
Default : Нет
Forced : Нет

Текст #1
Идентификатор : 8
Формат : UTF-8
Идентификатор кодека : S_TEXT/UTF8
Идентификатор кодека/Информация : UTF-8 Plain Text
Продолжительность : 1 ч. 17 м.
Битрейт : 4 бит/сек
Count of elements : 67
Размер потока : 2,61 Кбайт (0%)
Заголовок : Sub-forced
Язык : Russian
Default : Да
Forced : Да

Текст #2
Идентификатор : 9
Формат : UTF-8
Идентификатор кодека : S_TEXT/UTF8
Идентификатор кодека/Информация : UTF-8 Plain Text
Продолжительность : 1 ч. 21 м.
Битрейт : 66 бит/сек
Count of elements : 777
Размер потока : 39,2 Кбайт (0%)
Заголовок : Sub-full
Язык : Russian
Default : Нет
Forced : Нет

Текст #3
Идентификатор : 10
Формат : UTF-8
Идентификатор кодека : S_TEXT/UTF8
Идентификатор кодека/Информация : UTF-8 Plain Text
Продолжительность : 1 ч. 17 м.
Битрейт : 4 бит/сек
Count of elements : 67
Размер потока : 2,65 Кбайт (0%)
Заголовок : Sub-forced
Язык : Ukrainian
Default : Нет
Forced : Нет

Текст #4
Идентификатор : 11
Формат : UTF-8
Идентификатор кодека : S_TEXT/UTF8
Идентификатор кодека/Информация : UTF-8 Plain Text
Продолжительность : 1 ч. 20 м.
Битрейт : 57 бит/сек
Count of elements : 777
Размер потока : 34,2 Кбайт (0%)
Заголовок : Sub-full
Язык : Ukrainian
Default : Нет
Forced : Нет

Текст #5
Идентификатор : 12
Формат : UTF-8
Идентификатор кодека : S_TEXT/UTF8
Идентификатор кодека/Информация : UTF-8 Plain Text
Продолжительность : 50 м.
Битрейт : 3 бит/сек
Count of elements : 59
Размер потока : 1,36 Кбайт (0%)
Заголовок : Sub-forced
Язык : English
Default : Нет
Forced : Нет

Текст #6
Идентификатор : 13
Формат : UTF-8
Идентификатор кодека : S_TEXT/UTF8
Идентификатор кодека/Информация : UTF-8 Plain Text
Продолжительность : 1 ч. 20 м.
Битрейт : 42 бит/сек
Count of elements : 830
Размер потока : 25,4 Кбайт (0%)
Заголовок : Sub-full
Язык : English
Default : Нет
Forced : Нет

Текст #7
Идентификатор : 14
Формат : UTF-8
Идентификатор кодека : S_TEXT/UTF8
Идентификатор кодека/Информация : UTF-8 Plain Text
Продолжительность : 1 ч. 20 м.
Битрейт : 48 бит/сек
Count of elements : 802
Размер потока : 28,4 Кбайт (0%)
Заголовок : Sub-SDH
Язык : English
Default : Нет
Forced : Нет

Текст #8
Идентификатор : 15
Формат : UTF-8
Идентификатор кодека : S_TEXT/UTF8
Идентификатор кодека/Информация : UTF-8 Plain Text
Продолжительность : 1 ч. 20 м.
Битрейт : 59 бит/сек
Count of elements : 1013
Размер потока : 35,2 Кбайт (0%)
Заголовок : Sub-SDH Colored
Язык : English
Default : Нет
Forced : Нет

Меню
00:00:00.000 : en:Chapter 1
00:05:26.367 : en:Chapter 2
00:08:38.267 : en:Chapter 3
00:15:45.569 : en:Chapter 4
00:21:36.295 : en:Chapter 5
00:26:05.397 : en:Chapter 6
00:30:27.534 : en:Chapter 7
00:37:36.254 : en:Chapter 8
00:41:43.459 : en:Chapter 9
00:47:32.558 : en:Chapter 10
00:50:10.716 : en:Chapter 11
00:55:32.495 : en:Chapter 12
00:59:36.072 : en:Chapter 13
01:02:08.099 : en:Chapter 14
01:04:51.345 : en:Chapter 15
01:07:14.030 : en:Chapter 16
01:09:55.816 : en:Chapter 17
01:12:26.133 : en:Chapter 18
01:18:50.600 : en:Chapter 19
01:22:31.571 : en:Chapter 20



Скачать Люси через торрент http://i105.fastpic.ru/big/2018/0412/c8/cd3ee8dab7cc2e1cbc6c3eb2da0879c8.png Скачать, смотреть онлайн Люси бесплантно в хорошем качестве Описание: Еще вчера она была просто сексапильной блондинкой, а сегодня - самое опасное и смертоносное создание на планете со ... 10 10 3
Торрент: Зарегистрирован [2018-04-13 03:26] · скачан: 67 раз
Статус: √ проверено
Размер: 24.05 GB
Как cкачать? Как скачать Люси через торрент | UTorrent

% Раздел Тема Автор DL S | L
Ultra HD (UHD: 2K, 4K, 8K) [ 57.6 GB ] Люси / Lucy | DUB + 2xAVO | 2160p sheker187 Скачать
1 | 0

28-11-2019 20:33  


Отключить вcю реклaмy на сайте, в т.ч. и в плеере онлайн просмотра!

    Дорогой пользователь! Огромная просьба, поблагодарите релизера, оцените раздачу и оставьте свои комментарий, если Вы скачали Люси через торрент бесплатно!!
    Комментировать посты могут только пользователи прошедшие не сложную регистрацию
    Показать сообщения:    


    Люси через торрент
    Скачать бесплатно Люси
    Люси скачать торрент
    Люси смотреть онлайн
    Cкачать фильм Люси бесплатно
    Люси скачать торрент в хорошем качестве
    Люси смотреть онлайн бесплатно в хорошем качестве
    Вы не можете начинать темы
    Вы не можете отвечать на сообщения
    Вы не можете редактировать свои сообщения
    Вы не можете удалять свои сообщения
    Вы не можете голосовать в опросах
    Вы не можете прикреплять файлы к сообщениям
    Вы можете скачивать файлы
    Люси / Lucy [2014, боевик, фантастика, UHD BDRip 2160p] Дубляж + 2xAVO смотреть онлайн, скачать торрент picoco.icu