Достать ножи: Стеклянная луковица

MVO

Добыча

Дубляж

Уэнсдэй

1 сезон

Тор

Дубляж

13 клиническая

1 сезон

Жестокая ночь

MVO

Одни из нас

1 сезон

Deluxe

pack

Рекомендуем

30

Пиратка

ВАЖНО

ВАЖНО

Ghostwire

Пиратка

jed

RePack

nioh2

RePack

RDR2

RePack

NEED FOR SPEED™ PAYBACK

RePack

скачать торрент

Кинопоиск HD

Острые козырьки 6 сезон

6 сезон

FAR CRY 6

RePack

скачать торрент

Лицензия

скачать торрент

MVO

1

1 сезон

скачать торрент

1 сезон

скачать торрент

Лицензия

  

Ультиматум Борна / The Bourne Ultimatum (Пол Гринграсс) [2007, боевик, триллер, детектив, UHD BDRemux 2160p] Дубляж (rus, ukr) + MVO + 2xAVO

Ультиматум Борна через торрент 5050.piratbit.fun

Размер: 56.53 GB | Добавлен: 4 года 9 мес. назад | Торрент скачан:39 раз
Смотреть онлайн | Скачать | Поддержите нас   

18-04-2018 02:02 Ультиматум Борна Скачать торрент  

Ультиматум Борна / The Bourne Ultimatum«Вспомнить все. Не прощать ничего»
Год выпуска: 2007
Страна: США, Германия, Франция, Испания
Жанр: боевик, триллер, детектив
Продолжительность: 01:55:20
Перевод: Дублированный, профессиональный двухголосый, авторский
Субтитры: Russian (Forced, Full), English (Forced, Full, Commentary)
Режиссер: Пол Гринграсс
В ролях:

Мэтт Дэймон, Джулия Стайлз, Дэвид Стрэтэйрн, Джоан Аллен, Пэдди Консидайн, Эдгар Рамирес, Альберт Финни, Скотт Гленн, Том Гэллоп, Кори Джонсон, Даниэль Брюль, Джои Анса
Описание:
Он хотел одного - исчезнуть. Вместо этого за Борном теперь охотятся люди, которые сделали его таким, какой он есть. Он потерял память и человека, которого он любил. Но его не удается сдержать даже новому поколению профессиональных убийц. У него только одна цель: вернуться к началу и узнать кем он был, Джейсон Борн.
Рейтинг:

MPAA: PG-13 - Детям до 13 лет просмотр не желателен
Качество: UHD BDRemux 2160p
Формат: MKV
Видео: HEVC, 3840x2160 (16:9), 23.976 fps, 61.0 Mb/s (0.307 bit/pixel)
Аудио #1: DTS, 48.0 kHz, 6 ch, 755 kb/s, CBR (Russian) | Дублированный |
Аудио #2: AC-3, 48.0 kHz, 6 ch, 448 kb/s, CBR (Russian) | Дублированный |
Аудио #3: AC-3, 48.0 kHz, 6 ch, 448 kb/s, CBR (Russian) | MVO, П.Гланц и И.Королёва |
Аудио #4: DTS, 48.0 kHz, 6 ch, 1 510 kb/s, CBR (Russian) | AVO, А.Гаврилов |
Аудио #5: AC-3, 48.0 kHz, 6 ch, 448 kb/s, CBR (Russian) | AVO, Ю. Живов |
Аудио #6: AC-3, 48.0 kHz, 6 ch, 448 kb/s, CBR (Ukrainian) | Дублированный |
Аудио #7: DTS X / MA / Core, / 48.0 kHz / 48.0 kHz, Object Based / 8 / 6 ch, 4 255 kb/s / 4 255 kb/s / 1 509 kb/s, VBR / VBR / CBR | Original |
Аудио #8: AC-3, 48.0 kHz, 6 ch, 640 kb/s, CBR | Original |
Аудио #9: AC-3, 48.0 kHz, 2 ch, 192 kb/s, CBR | Commentary|
Навигация по главам: есть
Общее
Уникальный идентификатор : 43467655015863790792183744848381019934 (0x20B390DAF039E577F516254D472F071E)
Полное имя : The.Bourne.Ultimatum.2007.UHD.BDRemux.2160p.HEVC.HDR.IVA(4xRUS.UKR.ENG).ExKinoRay.mkv
Формат : Matroska
Версия формата : Version 4 / Version 2
Размер файла : 56,5 Гбайт
Продолжительность : 1 ч. 55 м.
Общий поток : 70,2 Мбит/сек
Название фильма : Ультиматум Борна / The Bourne Ultimatum ( 2007 ) | HDR, 4K | IVA(4xRUS.UKR.ENG) | ExKinoRay
Дата кодирования : UTC 2018-04-17 22:12:05
Программа кодирования : mkvmerge v22.0.0 ('At The End Of The World') 64-bit
Библиотека кодирования : libebml v1.3.5 + libmatroska v1.4.8
Обложка : Yes

Видео
Идентификатор : 1
Формат : HEVC
Формат/Информация : High Efficiency Video Coding
Коммерческое название : HDR10
Профиль формата : Main [email protected]@High
Идентификатор кодека : V_MPEGH/ISO/HEVC
Продолжительность : 1 ч. 55 м.
Битрейт : 61,0 Мбит/сек
Ширина : 3840 пикселей
Высота : 2160 пикселей
Соотношение сторон : 16:9
Режим частоты кадров : Постоянный
Частота кадров : 23,976 (24000/1001) кадра/сек
Цветовое пространство : YUV
Субдискретизация насыщенности : 4:2:0 (Type 2)
Битовая глубина : 10 бит
Бит/(Пиксели*Кадры) : 0.307
Размер потока : 49,1 Гбайт (87%)
Заголовок : The.Bourne.Ultimatum.2007.2160p.BluRay.REMUX.HEVC.DTS-X.7.1
Библиотека кодирования : ATEME Titan File 3.7.6 (4.7.6.101)
Default : Да
Forced : Нет
Цветовой диапазон : Limited
Основные цвета : BT.2020
Характеристики трансфера : PQ
Коэффициенты матрицы : BT.2020 non-constant
MasteringDisplay_ColorPrimaries : BT.709
MasteringDisplay_Luminance : min: 0.0050 cd/m2, max: 1000 cd/m2
MaxCLL : 951 cd/m2
MaxFALL : 142 cd/m2

Аудио #1
Идентификатор : 2
Формат : DTS
Формат/Информация : Digital Theater Systems
Идентификатор кодека : A_DTS
Продолжительность : 1 ч. 55 м.
Вид битрейта : Постоянный
Битрейт : 755 Кбит/сек
Каналы : 6 каналов
Расположение каналов : Front: L C R, Side: L R, LFE
Частота : 48,0 КГц
Частота кадров : 93,750 кадра/сек (512 SPF)
Битовая глубина : 24 бит
Метод сжатия : С потерями
Размер потока : 622 Мбайт (1%)
Заголовок : | Дублированный |
Язык : Russian
Default : Да
Forced : Нет

Аудио #2
Идентификатор : 3
Формат : AC-3
Формат/Информация : Audio Coding 3
Идентификатор кодека : A_AC3
Продолжительность : 1 ч. 55 м.
Вид битрейта : Постоянный
Битрейт : 448 Кбит/сек
Каналы : 6 каналов
Расположение каналов : Front: L C R, Side: L R, LFE
Частота : 48,0 КГц
Частота кадров : 31,250 кадров/сек (1536 SPF)
Битовая глубина : 16 бит
Метод сжатия : С потерями
Размер потока : 369 Мбайт (1%)
Заголовок : | Дублированный |
Язык : Russian
ServiceKind/String : Complete Main
Default : Нет
Forced : Нет

Аудио #3
Идентификатор : 4
Формат : AC-3
Формат/Информация : Audio Coding 3
Идентификатор кодека : A_AC3
Продолжительность : 1 ч. 55 м.
Вид битрейта : Постоянный
Битрейт : 448 Кбит/сек
Каналы : 6 каналов
Расположение каналов : Front: L C R, Side: L R, LFE
Частота : 48,0 КГц
Частота кадров : 31,250 кадров/сек (1536 SPF)
Битовая глубина : 16 бит
Метод сжатия : С потерями
Размер потока : 370 Мбайт (1%)
Заголовок : | MVO, П.Гланц и И.Королёва |
Язык : Russian
ServiceKind/String : Complete Main
Default : Нет
Forced : Нет

Аудио #4
Идентификатор : 5
Формат : DTS
Формат/Информация : Digital Theater Systems
Идентификатор кодека : A_DTS
Продолжительность : 1 ч. 55 м.
Вид битрейта : Постоянный
Битрейт : 1510 Кбит/сек
Каналы : 6 каналов
Расположение каналов : Front: L C R, Side: L R, LFE
Частота : 48,0 КГц
Частота кадров : 93,750 кадра/сек (512 SPF)
Битовая глубина : 24 бит
Метод сжатия : С потерями
Размер потока : 1,22 Гбайт (2%)
Заголовок : | AVO, А.Гаврилов |
Язык : Russian
Default : Нет
Forced : Нет

Аудио #5
Идентификатор : 6
Формат : AC-3
Формат/Информация : Audio Coding 3
Идентификатор кодека : A_AC3
Продолжительность : 1 ч. 55 м.
Вид битрейта : Постоянный
Битрейт : 448 Кбит/сек
Каналы : 6 каналов
Расположение каналов : Front: L C R, Side: L R, LFE
Частота : 48,0 КГц
Частота кадров : 31,250 кадров/сек (1536 SPF)
Битовая глубина : 16 бит
Метод сжатия : С потерями
Задержка видео : 22 мс.
Размер потока : 370 Мбайт (1%)
Заголовок : | AVO, Ю. Живов |
Язык : Russian
ServiceKind/String : Complete Main
Default : Нет
Forced : Нет

Аудио #6
Идентификатор : 7
Формат : AC-3
Формат/Информация : Audio Coding 3
Идентификатор кодека : A_AC3
Продолжительность : 1 ч. 55 м.
Вид битрейта : Постоянный
Битрейт : 448 Кбит/сек
Каналы : 6 каналов
Расположение каналов : Front: L C R, Side: L R, LFE
Частота : 48,0 КГц
Частота кадров : 31,250 кадров/сек (1536 SPF)
Битовая глубина : 16 бит
Метод сжатия : С потерями
Задержка видео : 22 мс.
Размер потока : 369 Мбайт (1%)
Заголовок : | Дублированный |
Язык : Ukrainian
ServiceKind/String : Complete Main
Default : Нет
Forced : Нет

Аудио #7
Идентификатор : 8
Формат : DTS
Формат/Информация : Digital Theater Systems
Профиль формата : X / MA / Core
Идентификатор кодека : A_DTS
Продолжительность : 1 ч. 55 м.
Вид битрейта : Переменный / Переменный / Постоянный
Битрейт : 4255 Кбит/сек / 4255 Кбит/сек / 1509 Кбит/сек
Каналы : Object Based / 8 каналов / 6 каналов
Расположение каналов : Object Based / Front: L C R, Side: L R, Back: L R, LFE / Front: L C R, Side: L R, LFE
Частота : / 48,0 КГц / 48,0 КГц
Частота кадров : 93,750 кадра/сек (512 SPF)
Битовая глубина : / 24 бит / 24 бит
Метод сжатия : / Lossless / Lossy
Размер потока : 3,42 Гбайт (6%)
Заголовок : | Original |
Язык : English
Default : Нет
Forced : Нет

Аудио #8
Идентификатор : 9
Формат : AC-3
Формат/Информация : Audio Coding 3
Идентификатор кодека : A_AC3
Продолжительность : 1 ч. 55 м.
Вид битрейта : Постоянный
Битрейт : 640 Кбит/сек
Каналы : 6 каналов
Расположение каналов : Front: L C R, Side: L R, LFE
Частота : 48,0 КГц
Частота кадров : 31,250 кадров/сек (1536 SPF)
Битовая глубина : 16 бит
Метод сжатия : С потерями
Размер потока : 528 Мбайт (1%)
Заголовок : | Original, AC3 |
Язык : English
ServiceKind/String : Complete Main
Default : Нет
Forced : Нет

Аудио #9
Идентификатор : 10
Формат : AC-3
Формат/Информация : Audio Coding 3
Идентификатор кодека : A_AC3
Продолжительность : 1 ч. 55 м.
Вид битрейта : Постоянный
Битрейт : 192 Кбит/сек
Каналы : 2 канала
Расположение каналов : Front: L R
Частота : 48,0 КГц
Частота кадров : 31,250 кадров/сек (1536 SPF)
Битовая глубина : 16 бит
Метод сжатия : С потерями
Размер потока : 158 Мбайт (0%)
Заголовок : Commentary
Язык : English
ServiceKind/String : Complete Main
Default : Нет
Forced : Нет

Текст #1
Идентификатор : 11
Формат : UTF-8
Идентификатор кодека : S_TEXT/UTF8
Идентификатор кодека/Информация : UTF-8 Plain Text
Продолжительность : 1 ч. 41 м.
Битрейт : 1 бит/сек
ElementCount : 23
Размер потока : 1,14 Кбайт (0%)
Заголовок : Forced
Язык : Russian
Default : Нет
Forced : Да

Текст #2
Идентификатор : 12
Формат : UTF-8
Идентификатор кодека : S_TEXT/UTF8
Идентификатор кодека/Информация : UTF-8 Plain Text
Продолжительность : 1 ч. 43 м.
Битрейт : 65 бит/сек
ElementCount : 781
Размер потока : 49,3 Кбайт (0%)
Заголовок : Full
Язык : Russian
Default : Нет
Forced : Нет

Текст #3
Идентификатор : 13
Формат : UTF-8
Идентификатор кодека : S_TEXT/UTF8
Идентификатор кодека/Информация : UTF-8 Plain Text
Продолжительность : 1 ч. 15 м.
Битрейт : 1 бит/сек
ElementCount : 28
Размер потока : 688 байт (0%)
Заголовок : Forced
Язык : English
Default : Нет
Forced : Да

Текст #4
Идентификатор : 14
Формат : UTF-8
Идентификатор кодека : S_TEXT/UTF8
Идентификатор кодека/Информация : UTF-8 Plain Text
Продолжительность : 1 ч. 45 м.
Битрейт : 45 бит/сек
ElementCount : 1017
Размер потока : 35,4 Кбайт (0%)
Заголовок : Full
Язык : English
Default : Нет
Forced : Нет

Текст #5
Идентификатор : 15
Формат : UTF-8
Идентификатор кодека : S_TEXT/UTF8
Идентификатор кодека/Информация : UTF-8 Plain Text
Продолжительность : 1 ч. 46 м.
Битрейт : 81 бит/сек
ElementCount : 1310
Размер потока : 63,4 Кбайт (0%)
Заголовок : Commentary
Язык : English
Default : Нет
Forced : Нет

Текст #6
Идентификатор : 16
Формат : PGS
Идентификатор кодека : S_HDMV/PGS
Идентификатор кодека/Информация : Picture based subtitle format used on BDs/HD-DVDs
Продолжительность : 1 ч. 15 м.
Битрейт : 857 бит/сек
ElementCount : 56
Размер потока : 471 Кбайт (0%)
Заголовок : English-FORCED-PGS
Язык : English
Default : Нет
Forced : Нет

Текст #7
Идентификатор : 17
Формат : PGS
Идентификатор кодека : S_HDMV/PGS
Идентификатор кодека/Информация : Picture based subtitle format used on BDs/HD-DVDs
Продолжительность : 1 ч. 45 м.
Битрейт : 28,4 Кбит/сек
ElementCount : 2034
Размер потока : 21,4 Мбайт (0%)
Заголовок : English-PGS
Язык : English
Default : Нет
Forced : Нет

Текст #8
Идентификатор : 18
Формат : PGS
Идентификатор кодека : S_HDMV/PGS
Идентификатор кодека/Информация : Picture based subtitle format used on BDs/HD-DVDs
Продолжительность : 1 ч. 46 м.
Битрейт : 47,0 Кбит/сек
ElementCount : 2620
Размер потока : 35,7 Мбайт (0%)
Заголовок : English-COMMENTARY-PGS
Язык : English
Default : Нет
Forced : Нет

Меню
00:00:00.000 : en:Chapter 1
00:04:02.242 : en:Chapter 2
00:09:46.127 : en:Chapter 3
00:13:57.211 : en:Chapter 4
00:21:01.843 : en:Chapter 5
00:27:52.045 : en:Chapter 6
00:31:46.863 : en:Chapter 7
00:38:44.447 : en:Chapter 8
00:43:51.754 : en:Chapter 9
00:50:02.916 : en:Chapter 10
00:58:12.780 : en:Chapter 11
01:05:35.765 : en:Chapter 12
01:10:35.898 : en:Chapter 13
01:15:49.586 : en:Chapter 14
01:20:36.957 : en:Chapter 15
01:25:08.269 : en:Chapter 16
01:31:34.780 : en:Chapter 17
01:35:58.294 : en:Chapter 18
01:42:11.834 : en:Chapter 19
01:46:07.361 : en:Chapter 20



Скачать Ультиматум Борна через торрент http://i105.fastpic.ru/big/2018/0418/55/e7a01d47c6c0df5bd685236e1a508a55.jpg Скачать, смотреть онлайн Ультиматум Борна бесплантно в хорошем качестве Описание: Он хотел одного - исчезнуть. Вместо этого за Борном теперь охотятся люди, которые сделали его таким, какой он есть. Он потерял ... 10 10 3
Info! Золотая раздача, скачанное не засчитывается.
Торрент: Зарегистрирован [2018-04-18 02:02] · скачан: 39 раз
Статус: √ проверено
Размер: 56.53 GB
Как cкачать? Как скачать Ультиматум Борна через торрент | UTorrent

28-11-2019 20:33  


Отключить вcю реклaмy на сайте, в т.ч. и в плеере онлайн просмотра!

    Дорогой пользователь! Огромная просьба, поблагодарите релизера, оцените раздачу и оставьте свои комментарий, если Вы скачали Ультиматум Борна через торрент бесплатно!!
    Комментировать посты могут только пользователи прошедшие не сложную регистрацию
    Показать сообщения:    


    Ультиматум Борна через торрент
    Скачать бесплатно Ультиматум Борна
    Ультиматум Борна скачать торрент
    Ультиматум Борна смотреть онлайн
    Cкачать фильм Ультиматум Борна бесплатно
    Ультиматум Борна скачать торрент в хорошем качестве
    Ультиматум Борна смотреть онлайн бесплатно в хорошем качестве
    Вы не можете начинать темы
    Вы не можете отвечать на сообщения
    Вы не можете редактировать свои сообщения
    Вы не можете удалять свои сообщения
    Вы не можете голосовать в опросах
    Вы не можете прикреплять файлы к сообщениям
    Вы можете скачивать файлы
    Ультиматум Борна / The Bourne Ultimatum [2007, боевик, триллер, детектив, UHD BDRemux 2160p] Дубляж + MVO + 2xAVO смотреть онлайн, скачать торрент picoco.icu