Достать ножи: Стеклянная луковица

MVO

Добыча

Дубляж

Уэнсдэй

1 сезон

Тор

Дубляж

13 клиническая

1 сезон

Жестокая ночь

MVO

Одни из нас

1 сезон

Deluxe

pack

Рекомендуем

30

Пиратка

ВАЖНО

ВАЖНО

Ghostwire

Пиратка

jed

RePack

nioh2

RePack

RDR2

RePack

NEED FOR SPEED™ PAYBACK

RePack

скачать торрент

Кинопоиск HD

Острые козырьки 6 сезон

6 сезон

FAR CRY 6

RePack

скачать торрент

Лицензия

скачать торрент

MVO

1

1 сезон

скачать торрент

1 сезон

скачать торрент

Лицензия

  

Рождество / The Night Before (Джонатан Левин) [2015, комедия, UHD WEBRip 2160p] Дубляж [Лицензия]

Рождество через торрент 5050.piratbit.fun

Размер: 20.44 GB | Добавлен: 4 года 9 мес. назад | Торрент скачан:7 раз
Смотреть онлайн | Скачать | Поддержите нас   

19-04-2018 21:32 Рождество Скачать торрент  

Рождество / The Night Before
Год выпуска: 2015
Страна: США
Жанр: комедия
Продолжительность: 01:41:33
Перевод: Дубляж | Лицензия
Субтитры: Русские, английские (Full, SDH)

Режиссер: Джонатан Левин

rating

В ролях:

Джозеф Гордон-Левитт, Сет Роген, Энтони Маки, Джиллиан Белл, Лиззи Каплан, Майкл Шеннон, Хелен Йорк, Илана Глейзер, Аарон Хилл, Трэйси Морган

Описание:

Один стал звездой, и нету времени на друзей, второй скоро станет папой, а третий решил собрать друзей вместе, чтобы вспомнить свои молодые годы. Так трое отправляются на поиски лучшей рождественской вечеринки в Нью-Йорке...

Качество: UHD WEBRip 2160p
Формат: MKV

Видео: MPEG-H HEVC HDR, 26.7 Mбит/с, 3840x2160, 23.976 кадр/с
Аудио#1: Русский (AC3, 6 ch, 640 Кбит/с) / Профессиональный многоголосый (Blu-ray CEE)
Аудио#2: Английский (DTS, 6 ch, 1509 Кбит/с)
скриншот   скриншот   скриншот   скриншот  

Общее
Уникальный идентификатор : 210207628045591957880518597149087346046 (0x9E24843BE917C161E7DF71C31FC1AD7E)
Полное имя : D:\Rozhdestvo.2015.WEB-DL.2160p.HDR.UHD.MediaClub.mkv
Формат : Matroska
Версия формата : Version 4 / Version 2
Размер файла : 20,4 Гбайт
Продолжительность : 1 ч. 41 м.
Общий поток : 28,8 Мбит/сек
Дата кодирования : UTC 2018-04-05 21:15:00
Программа кодирования : mkvmerge v19.0.0 ('Brave Captain') 64-bit
Библиотека кодирования : libebml v1.3.5 + libmatroska v1.4.8
Обложка : Yes
Attachments : cover.jpg

Видео
Идентификатор : 1
Формат : HEVC
Формат/Информация : High Efficiency Video Coding
Профиль формата : Main [email protected]@Main
Идентификатор кодека : V_MPEGH/ISO/HEVC
Продолжительность : 1 ч. 41 м.
Битрейт : 26,7 Мбит/сек
Ширина : 3840 пикселей
Высота : 2160 пикселей
Соотношение сторон : 16:9
Режим частоты кадров : Постоянный
Частота кадров : 23,976 (24000/1001) кадра/сек
Цветовое пространство : YUV
Субдискретизация насыщенности : 4:2:0
Битовая глубина : 10 бит
Бит/(Пиксели*Кадры) : 0.131
Размер потока : 18,5 Гбайт (91%)
Заголовок : WEB-DL.2160p.HDR by Silverok
Default : Да
Forced : Нет
Цветовой диапазон : Limited
Основные цвета : BT.2020
Характеристики трансфера : SMPTE ST 2084
Коэффициенты матрицы : BT.2020 non-constant
MasteringDisplay_ColorPrimaries : R: x=0.680000 y=0.320000, G: x=0.265000 y=0.690000, B: x=0.150000 y=0.060000, White point: x=0.312700 y=0.329000
MasteringDisplay_Luminance : min: 0.0050 cd/m2, max: 1000.0000 cd/m2

Аудио #1
Идентификатор : 2
Формат : AC-3
Формат/Информация : Audio Coding 3
Расширение режима : CM (complete main)
Параметр Endianness формата : Big
Идентификатор кодека : A_AC3
Продолжительность : 1 ч. 41 м.
Вид битрейта : Постоянный
Битрейт : 640 Кбит/сек
Каналы : 6 каналов
Расположение каналов : Front: L C R, Side: L R, LFE
Частота : 48,0 КГц
Частота кадров : 31,250 кадров/сек (1536 spf)
Метод сжатия : С потерями
Размер потока : 465 Мбайт (2%)
Заголовок : Профессиональный многоголосый
Язык : Russian
Default : Да
Forced : Нет

Аудио #2
Идентификатор : 3
Формат : DTS
Формат/Информация : Digital Theater Systems
Режим : 16
Параметр Endianness формата : Big
Идентификатор кодека : A_DTS
Продолжительность : 1 ч. 41 м.
Вид битрейта : Постоянный
Битрейт : 1509 Кбит/сек
Каналы : 6 каналов
Расположение каналов : Front: L C R, Side: L R, LFE
Частота : 48,0 КГц
Частота кадров : 93,750 кадра/сек (512 spf)
Битовая глубина : 24 бит
Метод сжатия : С потерями
Размер потока : 1,07 Гбайт (5%)
Язык : English
Default : Нет
Forced : Нет

Текст #1
Идентификатор : 4
Формат : UTF-8
Идентификатор кодека : S_TEXT/UTF8
Идентификатор кодека/Информация : UTF-8 Plain Text
Заголовок : Full
Язык : Russian
Default : Да
Forced : Нет

Текст #2
Идентификатор : 5
Формат : UTF-8
Идентификатор кодека : S_TEXT/UTF8
Идентификатор кодека/Информация : UTF-8 Plain Text
Заголовок : Full
Язык : English
Default : Нет
Forced : Нет

Текст #3
Идентификатор : 6
Формат : UTF-8
Идентификатор кодека : S_TEXT/UTF8
Идентификатор кодека/Информация : UTF-8 Plain Text
Заголовок : SDH
Язык : English
Default : Нет
Forced : Нет




Скачать Рождество через торрент https://pic1.kartinco.top/images/11/p85kb.jpg Скачать, смотреть онлайн Рождество бесплантно в хорошем качестве Описание: Один стал звездой, и нету времени на друзей, второй скоро станет папой, а третий решил собрать друзей вместе, чтобы вспомнить ... 10 10 2
Торрент: Зарегистрирован [2018-04-19 21:32] · скачан: 7 раз
Статус: √ проверено
Размер: 20.44 GB
Как cкачать? Как скачать Рождество через торрент | UTorrent

% Раздел Тема Автор DL S | L
Фильмы [HD 720p, 1080p] (Хороший звук DUB, MVO) [ 7.76 GB ] Рождество / The Night Before | MVO | 1080p bober100 Скачать
1 | 0
Фильмы 2015 [DVDrip, WEB-DLRip, HDrip] [ 2.08 GB ] Рождество / The Night Before | Лицензия" | HDRip MVO закадровый "Лицензия" coc900 Скачать
1 | 0
Фильмы 2015 [DVDrip, WEB-DLRip, HDrip] [ 1.46 GB ] Рождество / The Night Before | Лицензия | BDRip Twi7ter Скачать
1 | 0
Фильмы (Blu-ray, BD-Remux, HDDVD) [ 32.25 GB ] Рождество / The Night Before | Лицензия | Лицензия Russian Mafia Скачать
1 | 0
R.G. Resident & PiratVoice - Фильмы, Видео [ 1.46 GB ] Рождество / The Night Before | Лицензия | BDRip-AVC MVO [Лицензия / iTunes Хорват Скачать
1 | 0
Фильмы 2015 [DVDrip, WEB-DLRip, HDrip] [ 1.42 GB ] Рождество / The Night Before | Лицензия | BDRip Twi7ter Скачать
1 | 0
Фильмы 2015 [DVDrip, WEB-DLRip, HDrip] [ 2.14 GB ] Рождество / The Night Before | iTunes | BDRip-AVC от potroks potroks Скачать
1 | 0

28-11-2019 20:33  


Отключить вcю реклaмy на сайте, в т.ч. и в плеере онлайн просмотра!

    Дорогой пользователь! Огромная просьба, поблагодарите релизера, оцените раздачу и оставьте свои комментарий, если Вы скачали Рождество через торрент бесплатно!!
    Комментировать посты могут только пользователи прошедшие не сложную регистрацию
    Показать сообщения:    


    Рождество через торрент
    Скачать бесплатно Рождество
    Рождество скачать торрент
    Рождество смотреть онлайн
    Cкачать фильм Рождество бесплатно
    Рождество скачать торрент в хорошем качестве
    Рождество смотреть онлайн бесплатно в хорошем качестве
    Вы не можете начинать темы
    Вы не можете отвечать на сообщения
    Вы не можете редактировать свои сообщения
    Вы не можете удалять свои сообщения
    Вы не можете голосовать в опросах
    Вы не можете прикреплять файлы к сообщениям
    Вы можете скачивать файлы
    Рождество / The Night Before [2015, комедия, UHD WEBRip 2160p] Дубляж [Лицензия] смотреть онлайн, скачать торрент picoco.icu