Достать ножи: Стеклянная луковица

MVO

Добыча

Дубляж

Уэнсдэй

1 сезон

Тор

Дубляж

13 клиническая

1 сезон

Жестокая ночь

MVO

Одни из нас

1 сезон

Deluxe

pack

Рекомендуем

30

Пиратка

ВАЖНО

ВАЖНО

Ghostwire

Пиратка

jed

RePack

nioh2

RePack

RDR2

RePack

NEED FOR SPEED™ PAYBACK

RePack

скачать торрент

Кинопоиск HD

Острые козырьки 6 сезон

6 сезон

FAR CRY 6

RePack

скачать торрент

Лицензия

скачать торрент

MVO

1

1 сезон

скачать торрент

1 сезон

скачать торрент

Лицензия

  

Джуманджи: Зов джунглей / Jumanji: Welcome to the Jungle (Джейк Кэздан) [2017, фэнтези, боевик, комедия, приключения, семейный, UHD BDRemux 2160p] Дубляж (rus, ukr)

Джуманджи: Зов джунглей через торрент 5050.piratbit.fun

Размер: 44.29 GB | Добавлен: 4 года 9 мес. назад | Торрент скачан:32 раза
Смотреть онлайн | Скачать | Поддержите нас   

20-04-2018 02:45 Джуманджи: Зов джунглей Скачать торрент  

Джуманджи: Зов джунглей / Jumanji: Welcome to the Jungle«Осторожно, засосёт»
Год выпуска: 2017
Страна: США
Жанр: Фэнтези, боевик, комедия, приключения, семейный
Продолжительность: 01:59:03
Перевод: Дублированный | Лицензия
Субтитры: Русские (forced, full), украинские (full), английские
Режиссер: Джейк Кэздан
В ролях:

Дуэйн Джонсон (Spencer), Кевин Харт (Fridge), Джек Блэк (Bethany), Карен Гиллан (Martha), Риз Дэрби (Nigel), Бобби Каннавале (Van Pelt), Ник Джонас (Alex), Алекс Вулф (Young Spencer), Сер’Дариус Блэйн (Young Fridge), Мэдисон Исман (Young Bethany), Морган Тернер (Young Martha), Шон Бакстон (Jogger)
Описание:
Четверо подростков оказываются внутри игры «Джуманджи». Их ждет схватка с носорогами, черными мамбами, а на каждом шагу будет подстерегать бесконечная череда ловушек и головоломок. Чтобы пройти игру и остаться в живых, им придется перевоплотиться в персонажей игры: робкий и застенчивый Спенсер превращается в отважного и сильного исследователя, здоровяк Фридж — в коротышку, модница и красавица Беттани — в профессора, а неуклюжая и нескладная Марта становится бесстрашной и ловкой амазонкой. Друзьям придется привыкнуть к совершенно новым и таким непривычным для себя ролям и найти дорогу домой.
Рейтинг:

Качество: UHD BDRemux 2160p
Формат: MKV
Видео: MPEG-H HEVC HDR Video, 3840x2160, 46.8 Mbit/s, 23.976 fps
Аудио #01: 48 kHz, AC3, 5.1, 640 Kbps | Дублированный | RUS |
Аудио #02: 48 kHz, AC3, 2.0, 224 Kbps | Дублированный | UKR |
Аудио #03: 48 kHz, TrueHD, 7.1, 4837 Kbps | Оригинал | ENG |
Аудио #04: 48 kHz, AC3, 5.1, 640 Kbps | Оригинал | ENG |
Навигация по главам: есть
► Фильм посвящён памяти Робина Уильямса (1951-2014), сыгравшего главную роль в первом «Джуманджи».
► Съёмки фильма проходили на Гавайях.
► "Джуманджи» (Джо Джонстон, 1995) является одним из самых любимых фильмов актрисы Карен Гиллан.
General
Unique ID : 42112791002984124902572465663074889124 (0x1FAEA0E6E9760A89103574FCD587EDA4)
Complete name : C:Video111Jumanji.Welcome.to.the.Jungle.2017.D.BDREMUX.2160p.4K.UltraHD.HEVC.HDR.ExKinoRay.mkv
Format : Matroska
Format version : Version 4 / Version 2
File size : 44.3 GiB
Duration : 1 h 59 min
Overall bit rate mode : Variable
Overall bit rate : 53.3 Mb/s
Movie name : Jumanji Welcome to the Jungle 2017 from ExKinoRay
Encoded date : UTC 2018-04-20 02:03:50
Writing application : mkvmerge v22.0.0 ('At The End Of The World') 64-bit
Writing library : libebml v1.3.5 + libmatroska v1.4.8

Video
ID : 1
Format : HEVC
Format/Info : High Efficiency Video Coding
Commercial name : HDR10
Format profile : Main [email protected]@High
Codec ID : V_MPEGH/ISO/HEVC
Duration : 1 h 59 min
Bit rate : 46.8 Mb/s
Width : 3 840 pixels
Height : 2 160 pixels
Display aspect ratio : 16:9
Frame rate mode : Constant
Frame rate : 23.976 (24000/1001) FPS
Color space : YUV
Chroma subsampling : 4:2:0 (Type 2)
Bit depth : 10 bits
Bits/(Pixel*Frame) : 0.236
Stream size : 39.0 GiB (88%)
Language : English
Default : Yes
Forced : No
Color range : Limited
Color primaries : BT.2020
Transfer characteristics : PQ
Matrix coefficients : BT.2020 non-constant
Mastering display color pri : BT.709
Mastering display luminance : min: 0.0050 cd/m2, max: 4000 cd/m2
Maximum Content Light Level : 2013 cd/m2
Maximum Frame-Average Light : 393 cd/m2

Audio #1
ID : 2
Format : AC-3
Format/Info : Audio Coding 3
Codec ID : A_AC3
Duration : 1 h 59 min
Bit rate mode : Constant
Bit rate : 640 kb/s
Channel(s) : 6 channels
Channel positions : Front: L C R, Side: L R, LFE
Sampling rate : 48.0 kHz
Frame rate : 31.250 FPS (1536 SPF)
Bit depth : 16 bits
Compression mode : Lossy
Stream size : 545 MiB (1%)
Title : Дубляж [License]
Language : Russian
Service kind : Complete Main
Default : Yes
Forced : Yes

Audio #2
ID : 3
Format : AC-3
Format/Info : Audio Coding 3
Codec ID : A_AC3
Duration : 1 h 59 min
Bit rate mode : Constant
Bit rate : 224 kb/s
Channel(s) : 2 channels
Channel positions : Front: L R
Sampling rate : 48.0 kHz
Frame rate : 31.250 FPS (1536 SPF)
Bit depth : 16 bits
Compression mode : Lossy
Stream size : 191 MiB (0%)
Title : iTunes
Language : Ukrainian
Service kind : Complete Main
Default : No
Forced : No

Audio #3
ID : 4
Format : TrueHD
Format profile : TrueHD+Atmos / TrueHD
Codec ID : A_TRUEHD
Duration : 1 h 59 min
Bit rate mode : Variable
Bit rate : 4 837 kb/s
Maximum bit rate : 8 469 kb/s
Channel(s) : Object Based / 8 channels
Channel positions : Object Based / Front: L C R, Side: L R, Back: L R, LFE
Sampling rate : / 48.0 kHz
Frame rate : 1 200.000 FPS (40 SPF)
Compression mode : Lossless
Stream size : 4.02 GiB (9%)
Title : Original
Language : English
Default : No
Forced : No

Audio #4
ID : 5
Format : AC-3
Format/Info : Audio Coding 3
Codec ID : A_AC3
Duration : 1 h 59 min
Bit rate mode : Constant
Bit rate : 640 kb/s
Channel(s) : 6 channels
Channel positions : Front: L C R, Side: L R, LFE
Sampling rate : 48.0 kHz
Frame rate : 31.250 FPS (1536 SPF)
Bit depth : 16 bits
Compression mode : Lossy
Stream size : 545 MiB (1%)
Language : English
Service kind : Complete Main
Default : No
Forced : No

Text #1
ID : 6
Format : UTF-8
Codec ID : S_TEXT/UTF8
Codec ID/Info : UTF-8 Plain Text
Duration : 1 h 55 min
Bit rate : 0 b/s
Count of elements : 2
Stream size : 110 Bytes (0%)
Title : forced
Language : Russian
Default : Yes
Forced : Yes

Text #2
ID : 7
Format : UTF-8
Codec ID : S_TEXT/UTF8
Codec ID/Info : UTF-8 Plain Text
Duration : 1 h 57 min
Bit rate : 95 b/s
Count of elements : 1577
Stream size : 82.2 KiB (0%)
Title : full
Language : Russian
Default : No
Forced : No

Text #3
ID : 8
Format : UTF-8
Codec ID : S_TEXT/UTF8
Codec ID/Info : UTF-8 Plain Text
Duration : 1 h 57 min
Bit rate : 76 b/s
Count of elements : 1562
Stream size : 66.4 KiB (0%)
Title : iTunes
Language : Ukrainian
Default : No
Forced : No

Text #4
ID : 9
Format : UTF-8
Codec ID : S_TEXT/UTF8
Codec ID/Info : UTF-8 Plain Text
Duration : 1 h 48 min
Bit rate : 63 b/s
Count of elements : 1539
Stream size : 50.9 KiB (0%)
Title : full
Language : English
Default : No
Forced : No

Menu
00:00:00.000 : en:00:00:00.000
00:07:18.104 : en:00:07:18.104
00:17:15.993 : en:00:17:15.993
00:23:23.235 : en:00:23:23.235
00:29:24.972 : en:00:29:24.972
00:42:28.546 : en:00:42:28.546
00:47:11.162 : en:00:47:11.162
00:54:26.722 : en:00:54:26.722
01:03:20.839 : en:01:03:20.839
01:10:21.801 : en:01:10:21.801
01:15:51.672 : en:01:15:51.672
01:24:10.087 : en:01:24:10.087
01:28:20.295 : en:01:28:20.295
01:33:48.414 : en:01:33:48.414
01:42:22.887 : en:01:42:22.887
01:48:31.839 : en:01:48:31.839



Скачать Джуманджи: Зов джунглей через торрент http://i103.fastpic.ru/big/2018/0315/e4/39fa320ebf2def573415606a04e0f3e4.png Скачать, смотреть онлайн Джуманджи: Зов джунглей бесплантно в хорошем качестве Описание: Четверо подростков оказываются внутри игры «Джуманджи». Их ждет схватка с носорогами, черными мамбами, а на каждом шагу будет ... 7.3 10 3
Торрент: Зарегистрирован [2018-04-20 02:45] · скачан: 32 раз
Статус: √ проверено
Размер: 44.29 GB
Как cкачать? Как скачать Джуманджи: Зов джунглей через торрент | UTorrent

% Раздел Тема Автор DL S | L
Фильмы (HD 720p, 1080p) (48-60 fps) [ 5.23 GB ] Джуманджи: Зов джунглей / Jumanji: Welcome to the Jungle | Дубляж | DLRip 720p / 60 FPS slaventi-69 Скачать
1 | 1
3D Фильмы [ 6.9 GB ] Джуманджи: Зов джунглей в 3D / Jumanji: Welcome to the Jungle in 3D | Дубляж | 1080p, Дубляж slaventi-69 Скачать
1 | 1
Фильмы (HD 720p, 1080p) (48-60 fps) [ 3.93 GB ] Джуманджи: Зов джунглей / Jumanji: Welcome to the Jungle | Дубляж | 720p / 60 FPS slaventi-69 Скачать
1 | 0
Ultra HD (UHD: 2K, 4K, 8K) [ 39.6 GB ] Джуманджи: Зов джунглей / Jumanji: Welcome to the Jungle | DUB | 2160p sheker187 Скачать
1 | 0
Фильмы (HD 720p, 1080p) (48-60 fps) [ 12.14 GB ] Джуманджи: Зов джунглей / Jumanji: Welcome to the Jungle | Лицензия | 1080p, 60 fps bober100 Скачать
1 | 0
Фильмы (Blu-ray, BD-Remux, HDDVD) [ 27.06 GB ] Джуманджи: Зов джунглей / Jumanji: Welcome to the Jungle | DUB | 1080p sheker187 Скачать
1 | 0
Фильмы (Blu-ray, BD-Remux, HDDVD) [ 40.24 GB ] Джуманджи: Зов джунглей / Jumanji: Welcome to the Jungle | Лицензия | 1080p bober100 Скачать
1 | 0

28-11-2019 20:33  


Отключить вcю реклaмy на сайте, в т.ч. и в плеере онлайн просмотра!

    Дорогой пользователь! Огромная просьба, поблагодарите релизера, оцените раздачу и оставьте свои комментарий, если Вы скачали Джуманджи: Зов джунглей через торрент бесплатно!!
    Комментировать посты могут только пользователи прошедшие не сложную регистрацию
    Показать сообщения:    


    Джуманджи: Зов джунглей через торрент
    Скачать бесплатно Джуманджи: Зов джунглей
    Джуманджи: Зов джунглей скачать торрент
    Джуманджи: Зов джунглей смотреть онлайн
    Cкачать фильм Джуманджи: Зов джунглей бесплатно
    Джуманджи: Зов джунглей скачать торрент в хорошем качестве
    Джуманджи: Зов джунглей смотреть онлайн бесплатно в хорошем качестве
    Вы не можете начинать темы
    Вы не можете отвечать на сообщения
    Вы не можете редактировать свои сообщения
    Вы не можете удалять свои сообщения
    Вы не можете голосовать в опросах
    Вы не можете прикреплять файлы к сообщениям
    Вы можете скачивать файлы
    Джуманджи: Зов джунглей / Jumanji: Welcome to the Jungle [2017, фэнтези, боевик, комедия, приключения, семейный, UHD BDRemux 2160p] Дубляж смотреть онлайн, скачать торрент picoco.icu