Достать ножи: Стеклянная луковица

MVO

Добыча

Дубляж

Уэнсдэй

1 сезон

Тор

Дубляж

13 клиническая

1 сезон

Жестокая ночь

MVO

Одни из нас

1 сезон

Deluxe

pack

Рекомендуем

30

Пиратка

ВАЖНО

ВАЖНО

Ghostwire

Пиратка

jed

RePack

nioh2

RePack

RDR2

RePack

NEED FOR SPEED™ PAYBACK

RePack

скачать торрент

Кинопоиск HD

Острые козырьки 6 сезон

6 сезон

FAR CRY 6

RePack

скачать торрент

Лицензия

скачать торрент

MVO

1

1 сезон

скачать торрент

1 сезон

скачать торрент

Лицензия

  

Геошторм / Geostorm (Дин Девлин, Пол Гуйо) [2017 г., Фантастика, боевик, триллер, UHD WEB-DL 2160p] Дубляж + MVO

Геошторм через торрент 5050.piratbit.fun

Размер: 26.6 GB | Добавлен: 4 года 9 мес. назад | Торрент скачан:164 раза
Смотреть онлайн | Скачать | Поддержите нас   

21-04-2018 03:11 Геошторм Скачать торрент  

Геошторм / Geostorm«Есть вещи, которые нельзя контролировать» Год выпуска: 2017
Страна: США, Warner Bros., Electric Entertainment, Jerry Bruckheimer Films, Skydance Media
Жанр: Фантастика, боевик, триллер
Продолжительность: 01:49:07
Перевод: Дублированный, любительский многоголосый
Субтитры: Русские (форсированные, полные), английские
Режиссер: Дин Девлин, Пол Гуйо

В ролях:
Джерард Батлер, Джим Стёрджесс, Эбби Корниш, Александра Мария Лара, Дэниэл Ву, Эухенио Дербес, Амр Вакед, Эдеперо Одуйе, Энди Гарсиа, Эд Харрис, Роберт Шиэн, Ричард Шифф, Мэр Уиннингхэм, Зази Битц, Талита Бейтман, Даниэлла Гарсиа-Лоридо, Ричи Монтгомери, Билли Слотер, Грегори Алан Уильямс, Дэвид Дженсен, Дерек Робертс, Нэйтан Мур, Катрин Эштон, Рэндолл Ньюсом, Дуглас М. Гриффин
Описание:
В 2019 году планету накрывают необратимые изменения климата. Человечеству угрожает полное вымирание от естественных причин. Выразив по этому поводу глубокую обеспокоенность, США и примкнувшие к ним страны создают сеть спутников под управлением МКС, способную корректировать температуру, влажность и атмосферное давление в любой точке земного шара. Три года система работала без сбоев, пока в Афганистане на пятидесятиградусной жаре внезапно не замерзла насмерть целая деревня. Погодные аномалии продолжают возникать в разных закоулках мира. Для решения проблемы на станцию отправляют главного разработчика сети глобального климат-контроля, ранее уволенного оттуда своим младшим братом из-за идеологических разногласий с вашингтонским начальством. Дело осложняется тем, что новым начальником разработчика вероломно оказывается все тот же младший брат, система управления погодой окончательно выходит из-под контроля, а вокруг американского президента зреет климатический заговор.
Рейтинг:

Качество: UHD WEB-DL 2160p
Формат: MKV
Видео: HEVC, HDR 30300 Мбит/с, 3840x1600, 23.976 Кадр/с
Аудио#1: Русский / AC3 / 48 KHz / 5.1 ch / 448 Kbps (Дубляж - BD EUR)
Аудио#2: Русский / AC3, 2 ch, 192 Kbps (любительский многоголосый (Paradox & Omskbird Records))
Аудио#3: Английский / DTS-HD MA, 8 ch, 3929 Kbps

General
Unique ID : 195964612932670052007331078259708203309 (0x936D695F308AFB8FA741778818FF112D)
Complete name : D:uTorrentGeoshtorm.2017.WEB-DL.2160p.HDR.UHD.MediaClub.mkv
Format : Matroska
Format version : Version 4 / Version 2
File size : 26.6 GiB
Duration : 1 h 49 min
Overall bit rate : 34.9 Mb/s
Encoded date : UTC 2018-04-21 07:53:09
Writing application : mkvmerge v19.0.0 ('Brave Captain') 64-bit
Writing library : libebml v1.3.5 + libmatroska v1.4.8
Cover : Yes
Attachments : cover.jpg

Video
ID : 1
Format : HEVC
Format/Info : High Efficiency Video Coding
Commercial name : HDR10
Format profile : Main [email protected]@Main
Codec ID : V_MPEGH/ISO/HEVC
Duration : 1 h 49 min
Bit rate : 30.3 Mb/s
Width : 3 840 pixels
Height : 1 600 pixels
Display aspect ratio : 2.40:1
Frame rate mode : Constant
Frame rate : 23.976 (24000/1001) FPS
Color space : YUV
Chroma subsampling : 4:2:0
Bit depth : 10 bits
Bits/(Pixel*Frame) : 0.206
Stream size : 23.1 GiB (87%)
Title : WEB-DL.2160.HDR by Silverok
Default : Yes
Forced : No
Color range : Limited
Color primaries : BT.2020
Transfer characteristics : PQ
Matrix coefficients : BT.2020 non-constant
Mastering display color primaries : BT.709
Mastering display luminance : min: 0.0050 cd/m2, max: 1000 cd/m2

Audio #1
ID : 2
Format : AC-3
Format/Info : Audio Coding 3
Codec ID : A_AC3
Duration : 1 h 49 min
Bit rate mode : Constant
Bit rate : 448 kb/s
Channel(s) : 6 channels
Channel positions : Front: L C R, Side: L R, LFE
Sampling rate : 48.0 kHz
Frame rate : 31.250 FPS (1536 SPF)
Bit depth : 16 bits
Compression mode : Lossy
Stream size : 350 MiB (1%)
Title : Дублированный
Language : Russian
Service kind : Complete Main
Default : Yes
Forced : No

Audio #2
ID : 3
Format : AC-3
Format/Info : Audio Coding 3
Codec ID : A_AC3
Duration : 1 h 49 min
Bit rate mode : Constant
Bit rate : 192 kb/s
Channel(s) : 2 channels
Channel positions : Front: L R
Sampling rate : 48.0 kHz
Frame rate : 31.250 FPS (1536 SPF)
Bit depth : 16 bits
Compression mode : Lossy
Stream size : 150 MiB (1%)
Title : профессиональный многоголосый (Paradox&Omskbird Records)
Language : Russian
Service kind : Complete Main
Default : No
Forced : No

Audio #3
ID : 4
Format : DTS
Format/Info : Digital Theater Systems
Format profile : MA / Core
Codec ID : A_DTS
Duration : 1 h 49 min
Bit rate mode : Variable / Constant
Bit rate : 3 929 kb/s / 1 509 kb/s
Channel(s) : 6 channels
Channel positions : Front: L C R, Side: L R, LFE
Sampling rate : 48.0 kHz
Frame rate : 93.750 FPS (512 SPF)
Bit depth : 24 bits
Compression mode : Lossless / Lossy
Stream size : 2.99 GiB (11%)
Language : English
Default : No
Forced : No

Text #1
ID : 5
Format : UTF-8
Codec ID : S_TEXT/UTF8
Codec ID/Info : UTF-8 Plain Text
Duration : 1 h 37 min
Bit rate : 2 b/s
Count of elements : 36
Stream size : 1.95 KiB (0%)
Title : Forced
Language : Russian
Default : Yes
Forced : No

Text #2
ID : 6
Format : UTF-8
Codec ID : S_TEXT/UTF8
Codec ID/Info : UTF-8 Plain Text
Duration : 1 h 42 min
Bit rate : 111 b/s
Count of elements : 1235
Stream size : 83.9 KiB (0%)
Title : Full
Language : Russian
Default : No
Forced : No

Text #3
ID : 7
Format : UTF-8
Codec ID : S_TEXT/UTF8
Codec ID/Info : UTF-8 Plain Text
Duration : 1 h 40 min
Bit rate : 69 b/s
Count of elements : 1464
Stream size : 51.5 KiB (0%)
Title : Full
Language : English
Default : No
Forced : No




Скачать Геошторм через торрент http://i105.fastpic.ru/big/2018/0421/ad/a65a90c9b022a4dac09357dbb56b47ad.png Скачать, смотреть онлайн Геошторм бесплантно в хорошем качестве Описание: В 2019 году планету накрывают необратимые изменения климата. Человечеству угрожает полное вымирание от естественных причин. ... 9.7 10 7
Торрент: Зарегистрирован [2018-04-23 01:34] · скачан: 164 раз
Статус: √ проверено
Размер: 26.6 GB
Как cкачать? Как скачать Геошторм через торрент | UTorrent




Последний раз редактировалось: sheker187 (2018-04-23 01:34), всего редактировалось 1 раз

28-11-2019 20:33  


Отключить вcю реклaмy на сайте, в т.ч. и в плеере онлайн просмотра!

21-04-2018 15:26 Геошторм Скачать торрент  

жду 4К весом поболе



21-04-2018 20:41 Геошторм Скачать торрент  

если вы знакомы с физикой, хотя бы на уровне, что огонь это горячо, а вода - мокро, то смотреть эту жутчайшую лажу будет невыносимо
Сюжет - сплошная огромная дырища
обоснования - не меньшая лажа
фильм во многом перекликается с шедевральным бурением земли до самого центра

но если хватит воли не отвлекаться на эту ерунду :) то смотреть станет вполне и вполне увлекательно и приятно
сразу повылазят и технические красоты с прекрасной графикой, и буйство стихий и вполне себе динамичненькие сцены
ГЛАВНОЕ!!! умудриться не обращать внимание на:
физику
физику
физику
сюжет
обоснования
и прочую подобную несерьёзную лажу ))))



23-04-2018 01:35 Геошторм Скачать торрент  

Релиз обновлён



    Дорогой пользователь! Огромная просьба, поблагодарите релизера, оцените раздачу и оставьте свои комментарий, если Вы скачали Геошторм через торрент бесплатно!!
    Комментировать посты могут только пользователи прошедшие не сложную регистрацию
    Показать сообщения:    


    Геошторм через торрент
    Скачать бесплатно Геошторм
    Геошторм скачать торрент
    Геошторм смотреть онлайн
    Cкачать фильм Геошторм бесплатно
    Геошторм скачать торрент в хорошем качестве
    Геошторм смотреть онлайн бесплатно в хорошем качестве
    Вы не можете начинать темы
    Вы не можете отвечать на сообщения
    Вы не можете редактировать свои сообщения
    Вы не можете удалять свои сообщения
    Вы не можете голосовать в опросах
    Вы не можете прикреплять файлы к сообщениям
    Вы можете скачивать файлы
    Геошторм / Geostorm [2017 г., Фантастика, боевик, триллер, UHD WEB-DL 2160p] Дубляж + MVO смотреть онлайн, скачать торрент picoco.icu