Достать ножи: Стеклянная луковица

MVO

Добыча

Дубляж

Уэнсдэй

1 сезон

Тор

Дубляж

13 клиническая

1 сезон

Жестокая ночь

MVO

Одни из нас

1 сезон

Deluxe

pack

Рекомендуем

30

Пиратка

ВАЖНО

ВАЖНО

Ghostwire

Пиратка

jed

RePack

nioh2

RePack

RDR2

RePack

NEED FOR SPEED™ PAYBACK

RePack

скачать торрент

Кинопоиск HD

Острые козырьки 6 сезон

6 сезон

FAR CRY 6

RePack

скачать торрент

Лицензия

скачать торрент

MVO

1

1 сезон

скачать торрент

1 сезон

скачать торрент

Лицензия

  

Новогодний корпоратив / Office Christmas Party (Джош Гордон, Уилл Спек) [2016, комедия, UHD WEB-DL 2160p] Дубляж (rus, ukr) [Лицензия]

Новогодний корпоратив через торрент 5050.piratbit.fun

Размер: 29.14 GB | Добавлен: 4 года 9 мес. назад | Торрент скачан:23 раза
Смотреть онлайн | Скачать | Поддержите нас   

22-04-2018 01:56 Новогодний корпоратив Скачать торрент  

Новогодний корпоратив / Office Christmas PartyГод выпуска: 2016
Страна: США
Жанр: комедия
Продолжительность: 01:45:08
Перевод: Дублированный | Лицензия
Субтитры: Русские (forced, full), английские

Режиссер: Джош Гордон, Уилл Спек

rating

В ролях:

Джейсон Бейтман, Оливия Манн, ТиДжей Миллер, Дженнифер Энистон, Кейт МакКиннон, Кортни Б. Вэнс, Джиллиан Белл, Роб Кордри, Ванесса Байер, Рэндолл Парк

Описание:

Когда сестра героя, генеральный директор компании, угрожает брату закрыть его филиал, он устраивает эпическую рождественскую вечеринку, чтобы заполучить большого клиента и спасти фирму. Однако праздник выходит из-под контроля..

Качество: UHD WEB-DL 2160p
Формат: MKV

Видео: HEVC, HDR 38.0 Мбит/с, 3840x1600, 23.976 Кадр/с
Аудио#1: 48 kHz, AC3, 5.1, 640 Kbps | Дублированный | RUS |
Аудио#2: 48 kHz, AC3, 2.1, 192 Kbps | Дублированный | UKR |
Аудио#3: 48 kHz, AC3, 5.1, 640 Kbps | Оригинал | ENG |
скриншот   скриншот   скриншот   скриншот  скриншот  

Общее
Уникальный идентификатор : 206580403267746664841636215181144420178 (0x9B69F03EC3722A8AA13CED085956EF52)
Полное имя : D:\Office.Christmas.Party.2016.2160p..WEBRipx265.10bit.HDR.Master5.mkv
Формат : Matroska
Версия формата : Version 4 / Version 2
Размер файла : 29,1 Гбайт
Продолжительность : 1 ч. 45 м.
Общий поток : 39,5 Мбит/сек
Название фильма : Office.Christmas.Party.2016.2160p..WEBRipx265.10bit.HDR.Master5
Дата кодирования : UTC 2018-04-20 20:12:00
Программа кодирования : mkvmerge v8.1.0 ('Psychedelic Postcard') 32bit
Библиотека кодирования : libebml v1.3.1 + libmatroska v1.4.2

Видео
Идентификатор : 1
Формат : HEVC
Формат/Информация : High Efficiency Video Coding
Профиль формата : Main [email protected]@Main
Идентификатор кодека : V_MPEGH/ISO/HEVC
Продолжительность : 1 ч. 45 м.
Битрейт : 38.0 Мбит/сек
Ширина : 3840 пикселей
Высота : 1600 пикселей
Соотношение сторон : 2,40:1
Режим частоты кадров : Постоянный
Частота кадров : 23,976 (24000/1001) кадра/сек
Цветовое пространство : YUV
Субдискретизация насыщенности : 4:2:0
Битовая глубина : 10 бит
Бит/(Пиксели*Кадры) : 0.253
Размер потока : 27,5 Гбайт (94%)
Заголовок : Office.Christmas.Party.2016.2160p..WEBRipx265.10bit.HDR.Master5
Default : Да
Forced : Нет
Цветовой диапазон : Limited
Основные цвета : BT.2020
Характеристики трансфера : SMPTE ST 2084
Коэффициенты матрицы : BT.2020 non-constant
MasteringDisplay_ColorPrimaries : R: x=0.680000 y=0.320000, G: x=0.265000 y=0.690000, B: x=0.150000 y=0.060000, White point: x=0.312700 y=0.329000
MasteringDisplay_Luminance : min: 0.0050 cd/m2, max: 1000.0000 cd/m2

Аудио #1
Идентификатор : 2
Формат : AC-3
Формат/Информация : Audio Coding 3
Расширение режима : CM (complete main)
Параметр Endianness формата : Big
Идентификатор кодека : A_AC3
Продолжительность : 1 ч. 45 м.
Вид битрейта : Постоянный
Битрейт : 640 Кбит/сек
Каналы : 6 каналов
Расположение каналов : Front: L C R, Side: L R, LFE
Частота : 48,0 КГц
Частота кадров : 31,250 кадров/сек (1536 spf)
Метод сжатия : С потерями
Размер потока : 483 Мбайт (2%)
Заголовок : Дубляж [License]
Язык : Russian
Default : Да
Forced : Нет

Аудио #2
Идентификатор : 3
Формат : AC-3
Формат/Информация : Audio Coding 3
Расширение режима : CM (complete main)
Параметр Endianness формата : Big
Идентификатор кодека : A_AC3
Продолжительность : 1 ч. 45 м.
Вид битрейта : Постоянный
Битрейт : 192 Кбит/сек
Каналы : 2 канала
Расположение каналов : Front: L R
Частота : 48,0 КГц
Частота кадров : 31,250 кадров/сек (1536 spf)
Метод сжатия : С потерями
Размер потока : 145 Мбайт (0%)
Язык : Ukrainian
Default : Нет
Forced : Нет

Аудио #3
Идентификатор : 4
Формат : AC-3
Формат/Информация : Audio Coding 3
Расширение режима : CM (complete main)
Параметр Endianness формата : Big
Идентификатор кодека : A_AC3
Продолжительность : 1 ч. 45 м.
Вид битрейта : Постоянный
Битрейт : 640 Кбит/сек
Каналы : 6 каналов
Расположение каналов : Front: L C R, Side: L R, LFE
Частота : 48,0 КГц
Частота кадров : 31,250 кадров/сек (1536 spf)
Метод сжатия : С потерями
Размер потока : 483 Мбайт (2%)
Заголовок : Original
Язык : English
Default : Нет
Forced : Нет

Текст #1
Идентификатор : 5
Формат : UTF-8
Идентификатор кодека : S_TEXT/UTF8
Идентификатор кодека/Информация : UTF-8 Plain Text
Заголовок : Forced
Язык : Russian
Default : Да
Forced : Нет

Текст #2
Идентификатор : 6
Формат : UTF-8
Идентификатор кодека : S_TEXT/UTF8
Идентификатор кодека/Информация : UTF-8 Plain Text
Заголовок : Full
Язык : Russian
Default : Нет
Forced : Нет

Текст #3
Идентификатор : 7
Формат : UTF-8
Идентификатор кодека : S_TEXT/UTF8
Идентификатор кодека/Информация : UTF-8 Plain Text
Заголовок : Full
Язык : English
Default : Нет
Forced : Нет

Текст #4
Идентификатор : 8
Формат : UTF-8
Идентификатор кодека : S_TEXT/UTF8
Идентификатор кодека/Информация : UTF-8 Plain Text
Заголовок : SDH
Язык : English
Default : Нет
Forced : Нет

Меню
00:00:00.000 : en:00:00:00.000
00:08:02.708 : en:00:08:02.708
00:12:26.333 : en:00:12:26.333
00:22:25.250 : en:00:22:25.250
00:28:45.625 : en:00:28:45.625
00:32:00.792 : en:00:32:00.792
00:39:18.625 : en:00:39:18.625
00:48:50.625 : en:00:48:50.625
00:54:02.417 : en:00:54:02.417
00:59:19.333 : en:00:59:19.333
01:04:26.292 : en:01:04:26.292
01:10:02.375 : en:01:10:02.375
01:15:32.000 : en:01:15:32.000
01:20:58.167 : en:01:20:58.167
01:26:23.833 : en:01:26:23.833
01:34:44.500 : en:01:34:44.500
01:39:13.625 : en:01:39:13.625




Скачать Новогодний корпоратив через торрент http://i023.radikal.ru/1704/d5/5510905bea46.jpg Скачать, смотреть онлайн Новогодний корпоратив бесплантно в хорошем качестве Описание: Когда сестра героя, генеральный директор компании, угрожает брату закрыть его филиал, он устраивает эпическую рождественскую ... 10 10 2
Торрент: Зарегистрирован [2018-04-22 01:56] · скачан: 23 раз
Статус: √ проверено
Размер: 29.14 GB
Как cкачать? Как скачать Новогодний корпоратив через торрент | UTorrent

% Раздел Тема Автор DL S | L
Фильмы с авторской озвучкой [ 1.45 GB ] Новогодний корпоратив / Office Christmas Party | AVO - | BDRip Enigma2010 Скачать
2 | 0
Фильмы [HD 720p, 1080p] (Хороший звук DUB, MVO) [ 6.45 GB ] Новогодний корпоратив / Office Christmas Party | Лицензия Blu-ray EUR | 720p bober100 Скачать
1 | 0
Фильмы 2016 [DVDrip, WEB-DLRip, HDrip] (DUB, MVO) [ 1.81 GB ] Новогодний корпоратив / Office Christmas Party | Лицензия | BDRip-AVC Enigma2010 Скачать
2 | 0
Фильмы 2016 [DVDrip, WEB-DLRip, HDrip] (DUB, MVO) [ 2.18 GB ] Новогодний корпоратив / Office Christmas Party | Лицензия | BDRip Twi7ter Скачать
1 | 0
Фильмы 2016 [DVDrip, WEB-DLRip, HDrip] (DUB, MVO) [ 1.46 GB ] Новогодний корпоратив / Office Christmas Party | Лицензия | BDRip Twi7ter Скачать
2 | 0
Фильмы (Blu-ray, BD-Remux, HDDVD) [ 23.86 GB ] Новогодний корпоратив / Office Christmas Party | Лицензия | BDRemux 1080р от ExKinoRay Russian Mafia Скачать
1 | 0
Фильмы 2016 [DVDrip, WEB-DLRip, HDrip] (DUB, MVO) [ 2.05 GB ] Новогодний корпоратив / Office Christmas Party | iTunes" | HDRip, Дубляж "iTunes" coc900 Скачать
1 | 0

28-11-2019 20:33  


Отключить вcю реклaмy на сайте, в т.ч. и в плеере онлайн просмотра!

    Дорогой пользователь! Огромная просьба, поблагодарите релизера, оцените раздачу и оставьте свои комментарий, если Вы скачали Новогодний корпоратив через торрент бесплатно!!
    Комментировать посты могут только пользователи прошедшие не сложную регистрацию
    Показать сообщения:    


    Новогодний корпоратив через торрент
    Скачать бесплатно Новогодний корпоратив
    Новогодний корпоратив скачать торрент
    Новогодний корпоратив смотреть онлайн
    Cкачать фильм Новогодний корпоратив бесплатно
    Новогодний корпоратив скачать торрент в хорошем качестве
    Новогодний корпоратив смотреть онлайн бесплатно в хорошем качестве
    Вы не можете начинать темы
    Вы не можете отвечать на сообщения
    Вы не можете редактировать свои сообщения
    Вы не можете удалять свои сообщения
    Вы не можете голосовать в опросах
    Вы не можете прикреплять файлы к сообщениям
    Вы можете скачивать файлы
    Новогодний корпоратив / Office Christmas Party [2016, комедия, UHD WEB-DL 2160p] Дубляж [Лицензия] смотреть онлайн, скачать торрент picoco.icu