Достать ножи: Стеклянная луковица

MVO

Добыча

Дубляж

Уэнсдэй

1 сезон

Тор

Дубляж

13 клиническая

1 сезон

Жестокая ночь

MVO

Одни из нас

1 сезон

Deluxe

pack

Рекомендуем

30

Пиратка

ВАЖНО

ВАЖНО

Ghostwire

Пиратка

jed

RePack

nioh2

RePack

RDR2

RePack

NEED FOR SPEED™ PAYBACK

RePack

скачать торрент

Кинопоиск HD

Острые козырьки 6 сезон

6 сезон

FAR CRY 6

RePack

скачать торрент

Лицензия

скачать торрент

MVO

1

1 сезон

скачать торрент

1 сезон

скачать торрент

Лицензия

  

Мачо и ботан / 21 Jump Street (Фил Лорд, Кристофер Миллер) [2012 г., Боевик, комедия, криминал, UHD WEB-DL 2160p] 2xAVO +Дубляж (rus, ukr) [Лицензия]

Мачо и ботан через торрент 5050.piratbit.fun

Размер: 29.16 GB | Добавлен: 4 года 9 мес. назад | Торрент скачан:20 раз
Смотреть онлайн | Скачать | Поддержите нас   

22-04-2018 02:15 Мачо и ботан Скачать торрент  

Мачо и ботан / 21 Jump StreetГод выпуска: 2012
Страна: США
Жанр: Боевик, комедия, криминал
Продолжительность: 01:50:10
Перевод:

#1. Дублированный | Лицензия
#2. авторский | Михаил Яроцкий / kyberpunk
#3. авторский | А. Карповский

Субтитры: Русские (форсированные, полные), украинские (форсированные), английские (Full, SDH)

Режиссер: Фил Лорд, Кристофер Миллер

rating

В ролях:

Джона Хилл, Ченнинг Татум, Бри Ларсон, Дэйв Франко, Роб Риггл, Айс Кьюб, ДеРэй Дэвис, Дакс Флэйм, Крис Парнелл, Элли Кемпер

Описание:

Шмидт и Дженко люто ненавидели друг друга в школе. Однако жизнь распорядилась так, чтобы в полицейской академии они стали друзьями. Их никак нельзя было назвать гордостью альма-матер до тех пор, пока судьба не подкинула шанс все изменить - они поступили на службу в департамент секретной службы на Джамп-стрит, которой руководит капитан Диксон. Они меняют пистолеты и удостоверения на ранцы и используют свою моложавую внешность как прикрытие. Беда в том, что современные тинейджеры сильно отличаются от тех, какими их запомнили Шмидт и Дженко. Друзья понимают, что все их знания о сексе, наркотиках и рок-н-ролле в корне неверны. Кроме того, парни понимают, что, несмотря на прошедшие годы, детские комплексы им так и не удалось полностью искоренить. Обоим предстоит вновь заглянуть в глаза собственным страхам и в прямом смысле слова вернуться в шкуры подростков.

Качество: UHD WEB-DL 2160p
Формат: MKV

Видео: HEVC HDR, 33.6 Mбит/с, 3840x2160, 23.976 кадр/с
Аудио#1: Русский (AC3, 6 ch, 640 Кбит/с) / Дублированный (Blu-Ray CEE)
Аудио#2: Русский (DTS, 6 ch, 1509 Кбит/с) / Авторский (Михаил Яроцкий / kyberpunk)
Аудио#3: Русский (AC3, 2 ch, 192 Кбит/с) / Авторский (А. Карповский)
Аудио#4: Украинский (AC3, 6 ch, 640 Кбит/с) / Дублированный (Blu-Ray CEE)
Аудио#5: Английский (DTS, 6 ch, 1509 Кбит/с)
скриншот   скриншот   скриншот  

Общее
Уникальный идентификатор : 156198823561702736741844950419993782287 (0x7582CC9596E78FCEFD8779795AFFE80F)
Полное имя : D:\Macho.i.Botan.2012.WEB-DL.2160p.HDR.UHD.MediaClub.mkv
Формат : Matroska
Версия формата : Version 4 / Version 2
Размер файла : 29,2 Гбайт
Продолжительность : 1 ч. 49 м.
Общий поток : 38,1 Мбит/сек
Дата кодирования : UTC 2018-04-18 20:37:48
Программа кодирования : mkvmerge v19.0.0 ('Brave Captain') 64-bit
Библиотека кодирования : libebml v1.3.5 + libmatroska v1.4.8
Обложка : Yes
Attachments : cover.jpg

Видео
Идентификатор : 1
Формат : HEVC
Формат/Информация : High Efficiency Video Coding
Профиль формата : Main [email protected]@Main
Идентификатор кодека : V_MPEGH/ISO/HEVC
Продолжительность : 1 ч. 49 м.
Битрейт : 33,6 Мбит/сек
Ширина : 3840 пикселей
Высота : 2160 пикселей
Соотношение сторон : 16:9
Режим частоты кадров : Постоянный
Частота кадров : 23,976 (24000/1001) кадра/сек
Цветовое пространство : YUV
Субдискретизация насыщенности : 4:2:0
Битовая глубина : 10 бит
Бит/(Пиксели*Кадры) : 0.165
Размер потока : 25,1 Гбайт (86%)
Заголовок : WEB-DL.2160p.HDR by Silverok
Default : Да
Forced : Нет
Цветовой диапазон : Limited
Основные цвета : BT.2020
Характеристики трансфера : SMPTE ST 2084
Коэффициенты матрицы : BT.2020 non-constant
MasteringDisplay_ColorPrimaries : R: x=0.680000 y=0.320000, G: x=0.265000 y=0.690000, B: x=0.150000 y=0.060000, White point: x=0.312700 y=0.329000
MasteringDisplay_Luminance : min: 0.0050 cd/m2, max: 1000.0000 cd/m2

Аудио #1
Идентификатор : 2
Формат : AC-3
Формат/Информация : Audio Coding 3
Расширение режима : CM (complete main)
Параметр Endianness формата : Big
Идентификатор кодека : A_AC3
Продолжительность : 1 ч. 49 м.
Вид битрейта : Постоянный
Битрейт : 640 Кбит/сек
Каналы : 6 каналов
Расположение каналов : Front: L C R, Side: L R, LFE
Частота : 48,0 КГц
Частота кадров : 31,250 кадров/сек (1536 spf)
Метод сжатия : С потерями
Размер потока : 502 Мбайт (2%)
Заголовок : Дубляж Blu-Ray CEE
Язык : Russian
Default : Да
Forced : Нет

Аудио #2
Идентификатор : 3
Формат : DTS
Формат/Информация : Digital Theater Systems
Режим : 16
Параметр Endianness формата : Big
Идентификатор кодека : A_DTS
Продолжительность : 1 ч. 49 м.
Вид битрейта : Постоянный
Битрейт : 1509 Кбит/сек
Каналы : 6 каналов
Расположение каналов : Front: L C R, Side: L R, LFE
Частота : 48,0 КГц
Частота кадров : 93,750 кадра/сек (512 spf)
Битовая глубина : 24 бит
Метод сжатия : С потерями
Размер потока : 1,16 Гбайт (4%)
Заголовок : AVO (Михаил Яроцкий / kyberpunk)
Язык : Russian
Default : Нет
Forced : Нет

Аудио #3
Идентификатор : 4
Формат : AC-3
Формат/Информация : Audio Coding 3
Расширение режима : CM (complete main)
Параметр Endianness формата : Big
Идентификатор кодека : A_AC3
Продолжительность : 1 ч. 49 м.
Вид битрейта : Постоянный
Битрейт : 192 Кбит/сек
Каналы : 2 канала
Расположение каналов : Front: L R
Частота : 48,0 КГц
Частота кадров : 31,250 кадров/сек (1536 spf)
Метод сжатия : С потерями
Размер потока : 151 Мбайт (1%)
Заголовок : AVO (Карповский)
Язык : Russian
Default : Нет
Forced : Нет

Аудио #4
Идентификатор : 5
Формат : AC-3
Формат/Информация : Audio Coding 3
Расширение режима : CM (complete main)
Параметр Endianness формата : Big
Идентификатор кодека : A_AC3
Продолжительность : 1 ч. 49 м.
Вид битрейта : Постоянный
Битрейт : 640 Кбит/сек
Каналы : 6 каналов
Расположение каналов : Front: L C R, Side: L R, LFE
Частота : 48,0 КГц
Частота кадров : 31,250 кадров/сек (1536 spf)
Метод сжатия : С потерями
Размер потока : 502 Мбайт (2%)
Заголовок : Дубляж Blu-Ray CEE
Язык : Ukrainian
Default : Нет
Forced : Нет

Аудио #5
Идентификатор : 12
Формат : DTS
Формат/Информация : Digital Theater Systems
Режим : 16
Параметр Endianness формата : Big
Идентификатор кодека : A_DTS
Продолжительность : 1 ч. 49 м.
Вид битрейта : Постоянный
Битрейт : 1509 Кбит/сек
Каналы : 6 каналов
Расположение каналов : Front: L C R, Side: L R, LFE
Частота : 48,0 КГц
Частота кадров : 93,750 кадра/сек (512 spf)
Битовая глубина : 24 бит
Метод сжатия : С потерями
Размер потока : 1,16 Гбайт (4%)
Язык : English
Default : Нет
Forced : Нет

Текст #1
Идентификатор : 6
Формат : UTF-8
Идентификатор кодека : S_TEXT/UTF8
Идентификатор кодека/Информация : UTF-8 Plain Text
Заголовок : Forced
Язык : Russian
Default : Да
Forced : Да

Текст #2
Идентификатор : 7
Формат : UTF-8
Идентификатор кодека : S_TEXT/UTF8
Идентификатор кодека/Информация : UTF-8 Plain Text
Заголовок : Full (Blu-Ray CEE)
Язык : Russian
Default : Нет
Forced : Нет

Текст #3
Идентификатор : 8
Формат : UTF-8
Идентификатор кодека : S_TEXT/UTF8
Идентификатор кодека/Информация : UTF-8 Plain Text
Заголовок : Full (voronine)
Язык : Russian
Default : Нет
Forced : Нет

Текст #4
Идентификатор : 9
Формат : UTF-8
Идентификатор кодека : S_TEXT/UTF8
Идентификатор кодека/Информация : UTF-8 Plain Text
Заголовок : Full
Язык : English
Default : Нет
Forced : Нет

Текст #5
Идентификатор : 10
Формат : UTF-8
Идентификатор кодека : S_TEXT/UTF8
Идентификатор кодека/Информация : UTF-8 Plain Text
Заголовок : SDH
Язык : English
Default : Нет
Forced : Нет

Текст #6
Идентификатор : 11
Формат : UTF-8
Идентификатор кодека : S_TEXT/UTF8
Идентификатор кодека/Информация : UTF-8 Plain Text
Заголовок : Forced
Язык : Ukrainian
Default : Нет
Forced : Нет




Скачать Мачо и ботан через торрент http://linkme.ufanet.ru/images/5260a95d2b9a0a897e5b9b4ccbe95f82.png Скачать, смотреть онлайн Мачо и ботан бесплантно в хорошем качестве Описание: Шмидт и Дженко люто ненавидели друг друга в школе. Однако жизнь распорядилась так, чтобы в полицейской академии они стали ... 10 10 3
Торрент: Зарегистрирован [2018-04-22 02:15] · скачан: 20 раз
Статус: √ проверено
Размер: 29.16 GB
Как cкачать? Как скачать Мачо и ботан через торрент | UTorrent

% Раздел Тема Автор DL S | L
Ultra HD (UHD: 2K, 4K, 8K) [ 52.75 GB ] Мачо и ботан 2 / 22 Jump Street | Лицензия | 2160p bober100 Скачать
1 | 0
Ultra HD (UHD: 2K, 4K, 8K) [ 42.9 GB ] Мачо и ботан / 21 Jump Street | Лицензия | 2160p bober100 Скачать
1 | 0
Ultra HD (UHD: 2K, 4K, 8K) [ 9.76 GB ] Мачо и ботан 2 / 22 Jump Street | DUB | 2160p sheker187 Скачать
1 | 0
Фильмы 2014 [DVDrip, WEB-DLRip, HDrip] [ 2.91 GB ] Мачо и ботан 2 / 22 Jump Street | Дубляж BD CEE | BDRip-AVC solektra13 Скачать
1 | 0
Сборники на DVD и Сиквелы [DVDrip, WEB-DLRip, HDrip, BDRip] [ 3.63 GB ] Мачо и ботан: Дилогия / 21 Jump Street Dilogy | Лицензия | HDRip by Dean24 Dean24 Скачать
1 | 0
Фильмы 2014 [DVDrip, WEB-DLRip, HDrip] [ 1.45 GB ] Мачо и ботан 2 / 22 Jump Street | Лицензия | HDRip Ворон Скачать
1 | 0
Фильмы 2014 [DVDrip, WEB-DLRip, HDrip] [ 2.06 GB ] Мачо и ботан 2 / 22 Jump Street | Лицензия | DLRip-AVC, Дубляж - Лицензия / iTunes _KaisiK_ Скачать
1 | 0

28-11-2019 20:33  


Отключить вcю реклaмy на сайте, в т.ч. и в плеере онлайн просмотра!

    Дорогой пользователь! Огромная просьба, поблагодарите релизера, оцените раздачу и оставьте свои комментарий, если Вы скачали Мачо и ботан через торрент бесплатно!!
    Комментировать посты могут только пользователи прошедшие не сложную регистрацию
    Показать сообщения:    


    Мачо и ботан через торрент
    Скачать бесплатно Мачо и ботан
    Мачо и ботан скачать торрент
    Мачо и ботан смотреть онлайн
    Cкачать фильм Мачо и ботан бесплатно
    Мачо и ботан скачать торрент в хорошем качестве
    Мачо и ботан смотреть онлайн бесплатно в хорошем качестве
    Вы не можете начинать темы
    Вы не можете отвечать на сообщения
    Вы не можете редактировать свои сообщения
    Вы не можете удалять свои сообщения
    Вы не можете голосовать в опросах
    Вы не можете прикреплять файлы к сообщениям
    Вы можете скачивать файлы
    Мачо и ботан / 21 Jump Street [2012 г., Боевик, комедия, криминал, UHD WEB-DL 2160p] 2xAVO +Дубляж [Лицензия] смотреть онлайн, скачать торрент picoco.icu