Достать ножи: Стеклянная луковица

MVO

Добыча

Дубляж

Уэнсдэй

1 сезон

Тор

Дубляж

13 клиническая

1 сезон

Жестокая ночь

MVO

Одни из нас

1 сезон

Deluxe

pack

Рекомендуем

30

Пиратка

ВАЖНО

ВАЖНО

Ghostwire

Пиратка

jed

RePack

nioh2

RePack

RDR2

RePack

NEED FOR SPEED™ PAYBACK

RePack

скачать торрент

Кинопоиск HD

Острые козырьки 6 сезон

6 сезон

FAR CRY 6

RePack

скачать торрент

Лицензия

скачать торрент

MVO

1

1 сезон

скачать торрент

1 сезон

скачать торрент

Лицензия

  

Идеальный голос 3 / Pitch Perfect 3 (Триш Си) [2017, Комедия, музыка, UHD BDRemux 2160p] Дубляж [Лицензия]

Идеальный голос 3 через торрент 5050.piratbit.fun

Качают: 1 [ 0 KB/s ]
Размер: 52.96 GB | Добавлен: 4 года 9 мес. назад | Торрент скачан:25 раз
Смотреть онлайн | Скачать | Поддержите нас   

01-05-2018 01:45 Идеальный голос 3 Скачать торрент  

Идеальный голос 3 / Pitch Perfect 3
Год выпуска: 2017
Страна: США
Жанр: Комедия, музыка
Продолжительность: 01:33:03
Перевод: Дублированный | Лицензия
Субтитры: Russian (Forced, Full) English (Full, SDH, SDH-Colored)

Режиссер: Триш Си

rating

В ролях:

Анна Кендрик, Ребел Уилсон, Бриттани Сноу, Анна Кэмп, Хейли Стайнфелд, Эстер Дин, Хана Мэй Ли, Келли Джакл, Шелли Регнер, Крисси Фит

Описание:

История о коллективе юных и амбициозных певиц, которых ожидают новые вызовы и испытания на пути к успеху и широкому признанию.

Качество: UHD BDRemux 2160p
Формат: MKV

Видео: HEVC, 67,3 Мбит/с, 3840x2160, 23.976 кадр/с
Аудио#1: |RUS| DTS, 48.0 kHz, 6 ch, 768 kb/s, CBR (Russian) | Дублированный |
Аудио#2: |RUS| AC-3, 48.0 kHz, 6 ch, 448 kb/s, CBR (Russian) | Дублированный |
Аудио#3: |ENG| DTS X / MA / Core, / 48.0 kHz / 48.0 kHz, Object Based / 8 / 6 ch, 5 333 kb/s / 5 333 kb/s / 1 509 kb/s, VBR / VBR / CBR (English)
Аудио#4: |ENG| AC-3, 48.0 kHz, 6 ch, 640 kb/s, CBR | Original |
Аудио#5: |ENG| AC-3, 48.0 kHz, 2 ch, 192 kb/s, CBR | Commentary |
Аудио#6: |ENG| AC-3, 48.0 kHz, 2 ch, 192 kb/s, CBR | Commentary |
скриншот  скриншот  скриншот  скриншот  скриншот  скриншот  

Общее
Уникальный идентификатор : 278799453323407185565252756956214449408 (0xD1BED251FB3133FEE19041580DFFD500)
Полное имя : Pitch.Perfect.3.2017.Lic.2160p.BDREMUX.HEVC.HDR.IVA(RUS.ENG).ExKinoRay.mkv
Формат : Matroska
Версия формата : Version 4 / Version 2
Размер файла : 53,0 Гбайт
Продолжительность : 1 ч. 33 м.
Общий поток : 81,5 Мбит/сек
Название фильма : Идеальный голос 3 / Pitch Perfect 3 ( 2017 ) | 4K | HDR | IVA(RUS.ENG) | ExKinoRay
Дата кодирования : UTC 2018-04-30 19:55:05
Программа кодирования : mkvmerge v22.0.0 ('At The End Of The World') 64-bit
Библиотека кодирования : libebml v1.3.5 + libmatroska v1.4.8
Обложка : Yes

Видео
Идентификатор : 1
Формат : HEVC
Формат/Информация : High Efficiency Video Coding
Коммерческое название : HDR10
Профиль формата : Main [email protected]@High
Идентификатор кодека : V_MPEGH/ISO/HEVC
Продолжительность : 1 ч. 33 м.
Битрейт : 73,9 Мбит/сек
Ширина : 3840 пикселей
Высота : 2160 пикселей
Соотношение сторон : 16:9
Режим частоты кадров : Постоянный
Частота кадров : 23,976 (24000/1001) кадра/сек
Цветовое пространство : YUV
Субдискретизация насыщенности : 4:2:0 (Type 2)
Битовая глубина : 10 бит
Бит/(Пиксели*Кадры) : 0.372
Размер потока : 48,0 Гбайт (91%)
Заголовок : Pitch.Perfect.3.2017.2160p.BluRay.REMUX.HEVC
Библиотека кодирования : ATEME Titan File 3.8.13 (4.8.13.0)
Язык : English
Default : Да
Forced : Нет
Цветовой диапазон : Limited
Основные цвета : BT.2020
Характеристики трансфера : PQ
Коэффициенты матрицы : BT.2020 non-constant
MasteringDisplay_Luminance : min: 0.0050 cd/m2, max: 1000 cd/m2
MaxCLL : 992 cd/m2
MaxFALL : 373 cd/m2

Аудио #1
Идентификатор : 2
Формат : DTS
Формат/Информация : Digital Theater Systems
Идентификатор кодека : A_DTS
Продолжительность : 1 ч. 33 м.
Вид битрейта : Постоянный
Битрейт : 768 Кбит/сек
Каналы : 6 каналов
Расположение каналов : Front: L C R, Side: L R, LFE
Частота : 48,0 КГц
Частота кадров : 93,750 кадра/сек (512 SPF)
Битовая глубина : 24 бит
Метод сжатия : С потерями
Размер потока : 511 Мбайт (1%)
Заголовок : | Дублированный |
Язык : Russian
Default : Да
Forced : Нет

Аудио #2
Идентификатор : 3
Формат : AC-3
Формат/Информация : Audio Coding 3
Идентификатор кодека : A_AC3
Продолжительность : 1 ч. 33 м.
Вид битрейта : Постоянный
Битрейт : 448 Кбит/сек
Каналы : 6 каналов
Расположение каналов : Front: L C R, Side: L R, LFE
Частота : 48,0 КГц
Частота кадров : 31,250 кадров/сек (1536 SPF)
Битовая глубина : 16 бит
Метод сжатия : С потерями
Размер потока : 298 Мбайт (1%)
Заголовок : | Дублированный |
Язык : Russian
ServiceKind : Complete Main
Default : Нет
Forced : Нет

Аудио #3
Идентификатор : 4
Формат : DTS
Формат/Информация : Digital Theater Systems
Профиль формата : X / MA / Core
Идентификатор кодека : A_DTS
Продолжительность : 1 ч. 33 м.
Вид битрейта : Переменный / Переменный / Постоянный
Битрейт : 5333 Кбит/сек / 5333 Кбит/сек / 1509 Кбит/сек
Каналы : Object Based / 8 каналов / 6 каналов
Расположение каналов : Object Based / Front: L C R, Side: L R, Back: L R, LFE / Front: L C R, Side: L R, LFE
Частота : / 48,0 КГц / 48,0 КГц
Частота кадров : 93,750 кадра/сек (512 SPF)
Битовая глубина : / 24 бит / 24 бит
Метод сжатия : / Lossless / Lossy
Размер потока : 3,47 Гбайт (7%)
Заголовок : | Original |
Язык : English
Default : Нет
Forced : Нет

Аудио #4
Идентификатор : 5
Формат : AC-3
Формат/Информация : Audio Coding 3
Идентификатор кодека : A_AC3
Продолжительность : 1 ч. 33 м.
Вид битрейта : Постоянный
Битрейт : 640 Кбит/сек
Каналы : 6 каналов
Расположение каналов : Front: L C R, Side: L R, LFE
Частота : 48,0 КГц
Частота кадров : 31,250 кадров/сек (1536 SPF)
Битовая глубина : 16 бит
Метод сжатия : С потерями
Размер потока : 426 Мбайт (1%)
Заголовок : | Original |
Язык : English
ServiceKind : Complete Main
Default : Нет
Forced : Нет

Аудио #5
Идентификатор : 6
Формат : AC-3
Формат/Информация : Audio Coding 3
Идентификатор кодека : A_AC3
Продолжительность : 1 ч. 33 м.
Вид битрейта : Постоянный
Битрейт : 192 Кбит/сек
Каналы : 2 канала
Расположение каналов : Front: L R
Частота : 48,0 КГц
Частота кадров : 31,250 кадров/сек (1536 SPF)
Битовая глубина : 16 бит
Метод сжатия : С потерями
Размер потока : 128 Мбайт (0%)
Заголовок : | Commentary |
Язык : English
ServiceKind : Complete Main
Default : Нет
Forced : Нет

Аудио #6
Идентификатор : 7
Формат : AC-3
Формат/Информация : Audio Coding 3
Идентификатор кодека : A_AC3
Продолжительность : 1 ч. 33 м.
Вид битрейта : Постоянный
Битрейт : 192 Кбит/сек
Каналы : 2 канала
Расположение каналов : Front: L R
Частота : 48,0 КГц
Частота кадров : 31,250 кадров/сек (1536 SPF)
Битовая глубина : 16 бит
Метод сжатия : С потерями
Размер потока : 128 Мбайт (0%)
Заголовок : | Commentary |
Язык : English
ServiceKind : Complete Main
Default : Нет
Forced : Нет

Текст #1
Идентификатор : 8
Формат : UTF-8
Идентификатор кодека : S_TEXT/UTF8
Идентификатор кодека/Информация : UTF-8 Plain Text
Продолжительность : 1 ч. 31 м.
Битрейт : 21 бит/сек
ElementCount : 347
Размер потока : 14,7 Кбайт (0%)
Заголовок : Forced
Язык : Russian
Default : Да
Forced : Да

Текст #2
Идентификатор : 9
Формат : UTF-8
Идентификатор кодека : S_TEXT/UTF8
Идентификатор кодека/Информация : UTF-8 Plain Text
Продолжительность : 1 ч. 32 м.
Битрейт : 93 бит/сек
ElementCount : 1694
Размер потока : 63,1 Кбайт (0%)
Заголовок : Full
Язык : Russian
Default : Нет
Forced : Нет

Текст #3
Идентификатор : 10
Формат : UTF-8
Идентификатор кодека : S_TEXT/UTF8
Идентификатор кодека/Информация : UTF-8 Plain Text
Продолжительность : 1 ч. 29 м.
Битрейт : 101 бит/сек
ElementCount : 2071
Размер потока : 66,8 Кбайт (0%)
Заголовок : Full
Язык : English
Default : Нет
Forced : Нет

Текст #4
Идентификатор : 11
Формат : UTF-8
Идентификатор кодека : S_TEXT/UTF8
Идентификатор кодека/Информация : UTF-8 Plain Text
Продолжительность : 1 ч. 31 м.
Битрейт : 107 бит/сек
ElementCount : 2203
Размер потока : 72,5 Кбайт (0%)
Заголовок : SDH
Язык : English
Default : Нет
Forced : Нет

Текст #5
Идентификатор : 12
Формат : UTF-8
Идентификатор кодека : S_TEXT/UTF8
Идентификатор кодека/Информация : UTF-8 Plain Text
Продолжительность : 1 ч. 31 м.
Битрейт : 209 бит/сек
ElementCount : 2203
Размер потока : 141 Кбайт (0%)
Заголовок : SDH Colored
Язык : English
Default : Нет
Forced : Нет

Меню
00:00:00.000 : en:00:00:00.000
00:02:38.533 : en:00:02:38.533
00:05:18.318 : en:00:05:18.318
00:09:31.529 : en:00:09:31.529
00:14:15.563 : en:00:14:15.563
00:16:55.431 : en:00:16:55.431
00:19:09.940 : en:00:19:09.940
00:24:51.657 : en:00:24:51.657
00:29:26.765 : en:00:29:26.765
00:34:33.113 : en:00:34:33.113
00:38:41.402 : en:00:38:41.402
00:45:50.831 : en:00:45:50.831
00:50:31.612 : en:00:50:31.612
00:55:42.548 : en:00:55:42.548
00:59:15.469 : en:00:59:15.469
01:05:01.189 : en:01:05:01.189
01:09:42.053 : en:01:09:42.053
01:15:24.729 : en:01:15:24.729
01:19:25.928 : en:01:19:25.928
01:26:20.175 : en:01:26:20.175




Скачать Идеальный голос 3 через торрент https://b.radikal.ru/b02/1804/b0/8e723e87bb56.jpg Скачать, смотреть онлайн Идеальный голос 3 бесплантно в хорошем качестве Описание: История о коллективе юных и амбициозных певиц, которых ожидают новые вызовы и испытания на пути к успеху и широкому ... 10 10 2
Info! Золотая раздача, скачанное не засчитывается.
Торрент: Зарегистрирован [2018-05-01 01:45] · скачан: 25 раз
Статус: √ проверено
Размер: 52.96 GB
Как cкачать? Как скачать Идеальный голос 3 через торрент | UTorrent

% Раздел Тема Автор DL S | L
Фильмы 2017 [DVDrip, WEB-DLRip, HDrip] (DUB, MVO) [ 1.46 GB ] Идеальный голос 3 / Pitch Perfect 3 | Лицензия | BDRip Twi7ter Скачать
1 | 0
Фильмы 2017 [DVDrip, WEB-DLRip, HDrip] (DUB, MVO) [ 1.37 GB ] Идеальный голос 3 / Pitch Perfect 3 | Лицензия | HDRip bober100 Скачать
1 | 0
Фильмы (Blu-ray, BD-Remux, HDDVD) [ 21.09 GB ] Идеальный голос 3 / Pitch Perfect 3 | Лицензия | BD Remux 1080p bober100 Скачать
1 | 0
Фильмы [HD 720p, 1080p] (Хороший звук DUB, MVO) [ 6.44 GB ] Идеальный голос 3 / Pitch Perfect 3 | Лицензия | 720p bober100 Скачать
1 | 0
Фильмы [HD 720p, 1080p] (Хороший звук DUB, MVO) [ 11.73 GB ] Идеальный голос 3 / Pitch Perfect 3 | Лицензия | 1080p bober100 Скачать
1 | 0

28-11-2019 20:33  


Отключить вcю реклaмy на сайте, в т.ч. и в плеере онлайн просмотра!

07-05-2020 14:56 Идеальный голос 3 Скачать торрент  

встаньте пожалуйста на раздачу!!!1



    Дорогой пользователь! Огромная просьба, поблагодарите релизера, оцените раздачу и оставьте свои комментарий, если Вы скачали Идеальный голос 3 через торрент бесплатно!!
    Комментировать посты могут только пользователи прошедшие не сложную регистрацию
    Показать сообщения:    


    Идеальный голос 3 через торрент
    Скачать бесплатно Идеальный голос 3
    Идеальный голос 3 скачать торрент
    Идеальный голос 3 смотреть онлайн
    Cкачать фильм Идеальный голос 3 бесплатно
    Идеальный голос 3 скачать торрент в хорошем качестве
    Идеальный голос 3 смотреть онлайн бесплатно в хорошем качестве
    Вы не можете начинать темы
    Вы не можете отвечать на сообщения
    Вы не можете редактировать свои сообщения
    Вы не можете удалять свои сообщения
    Вы не можете голосовать в опросах
    Вы не можете прикреплять файлы к сообщениям
    Вы можете скачивать файлы
    Идеальный голос 3 / Pitch Perfect 3 [2017, Комедия, музыка, UHD BDRemux 2160p] Дубляж [Лицензия] смотреть онлайн, скачать торрент picoco.icu