Достать ножи: Стеклянная луковица

MVO

Добыча

Дубляж

Уэнсдэй

1 сезон

Тор

Дубляж

13 клиническая

1 сезон

Жестокая ночь

MVO

Одни из нас

1 сезон

Deluxe

pack

Рекомендуем

30

Пиратка

ВАЖНО

ВАЖНО

Ghostwire

Пиратка

jed

RePack

nioh2

RePack

RDR2

RePack

NEED FOR SPEED™ PAYBACK

RePack

скачать торрент

Кинопоиск HD

Острые козырьки 6 сезон

6 сезон

FAR CRY 6

RePack

скачать торрент

Лицензия

скачать торрент

MVO

1

1 сезон

скачать торрент

1 сезон

скачать торрент

Лицензия

  

Храброе сердце / Braveheart (Мэл Гибсон) [1995, драма, военный, биография, UHD BDRemux 2160p] Дубляж + AVO [А.Гаврилов]

Храброе сердце через торрент 5050.piratbit.fun

Размер: 89.82 GB | Добавлен: 4 года 8 мес. назад | Торрент скачан:48 раз
Смотреть онлайн | Скачать | Поддержите нас   

17-05-2018 15:37 Храброе сердце Скачать торрент  

Храброе сердце / Braveheart«Все умирают, но не все живут по-настоящему»
Год выпуска: 1995
Страна: США
Жанр: драма, военный, биография, история
Продолжительность: 02:57:43
Перевод: Дублированный, авторский
Субтитры: Русские(Full,Forced) английские, испанские, французские
Режиссер: Мэл Гибсон
В ролях:

Мэл Гибсон (William Wallace), Софи Марсо (Princess Isabelle), Патрик МакГуэн (Longshanks - King Edward I), Энгус МакФадьен (Robert the Bruce), Брендан Глисон (Hamish), Катрин МакКормак (Murron), Брайан Кокс (Argyle Wallace), Джерард МакСорли (Cheltham), Мартин Мерфи (Lord Talmadge), Томми Флэнаган (Morrison), Джон Мурта (Lochlan), Джеймс Робинсон (Young William)
Описание:
Действие фильма начинается в 1280 году в Шотландии. Это история легендарного национального героя Уильяма Уоллеса, посвятившего себя борьбе с англичанами при короле Эдварде Длинноногом.
Рейтинг:

MPAA: R - Лицам до 17 лет обязательно присутствие взрослого
Качество: UHD BDRemux 2160p
Формат: MKV
Видео: HEVC, 51.6 Мбит/с, 3840x2160, 23.976 Кадр/с
Аудио #1: Русский (DTS, 6 ch, 768 Кбит/с) / Дублированный (Blu-ray CEE)
Аудио #2: Русский (DTS, 6 ch, 1510 Кбит/с) / Авторский одноголосый (А.Гаврилов)
Аудио #3: Украинский (AC3, 2 ch, 192 Кбит/с) / Многоголосый закадровый, ТЕТ
Аудио #4: Украинский (AC3, 2 ch, 192 Кбит/с) / Двухголосый закадровый, ICTV
Аудио #5: Английский (Atmos / TrueHD, 8 ch, 5106 Кбит/с) Оригинал
Аудио #6: Английский (AC3, 6 ch, 640 Кбит/с) Оригинал
Аудио #7: Английский (DTS-HD MA, 8 ch, 4253 Кбит/с) Оригинал
Аудио #8: Французский (AC3, 6 ch, 640 Кбит/с) Дублированный
Аудио #9: Испанский (AC3, 6 ch, 640 Кбит/с) Дублированный
Аудио #10: Английский (AC3, 6 ch, 640 Кбит/с) Оригинал
Аудио #11: Английский (AC3, 2 ch, 224 Кбит/с) Оригинал
Навигация по главам: есть
• Несколько главных сражений в фильме пришлось переснимать из-за того, что на статистах в кадре были замечены солнечные очки и наручные часы.
• Король Эдуард I не был язычником, как это утверждается в фильме. Более того, он был участником Восьмого крестового похода.
• Отец и брат реального Уильяма Уоллеса были убиты в 1291 году, то есть когда Уоллесу было около 21 года, а не 10, как это показано в фильме.
• Реальный Уильям Уоллес не мог быть отцом Эдуарда III, как это предполагается в фильме. Между казнью Уоллеса (1305 год) и рождением Эдуарда III (1312 год) прошло 7 лет.
• В изображении битвы при Стерлингском мосту отсутствует собственно Стерлингский мост, который сыграл важную роль в победе шотландцев.
• Захват властями Уоллеса был спровоцирован не предательством отца Роберта Брюса, как это показано в фильме, а предательством лояльного английскому королю шотландского рыцаря Джона де Ментейса.
• Синяя краска из вайды, которой накрашены лица Уоллеса и его соратников, применялась древними кельтскими воинами. В XIII веке, когда происходит действия фильма, она не использовалась.
• Король Эдуард I умер не в одно время с Уоллесом, а через два года (в 1307 году).
• Меч Уоллеса в настоящее время хранится в Британском историческом музее. Во время съемок фильма "Храброе сердце" Мел Гибсон держал в руках 12 копий этого меча. Все копии были выполнены в точном соответствии оригиналу, т. е. и размер и вес.
Специальная премия Национального совета обозревателей Мелу Гибсону.

Оскар, 1996 год
Победитель (5):
Лучший фильм
Лучший режиссер (Мэл Гибсон)
Лучшая работа оператора
Лучший монтаж звука
Лучший грим
Номинации (5):
Лучший сценарий
Лучшие костюмы
Лучший звук
Лучший монтаж
Лучший саундтрек к драматическому фильму

Золотой глобус, 1996 год
Победитель (1):
Лучший режиссер (Мэл Гибсон)
Номинации (3):
Лучший фильм (драма)
Лучший сценарий
Лучший саундтрек

Премия канала «MTV», 1996 год
Победитель (1):
Лучшая экшн-сцена
Номинации (2):
Лучший фильм
Лучшая мужская роль (Мэл Гибсон)

Британская академия, 1996 год
Победитель (3):
Лучшая работа оператора
Лучшие костюмы
Лучший звук
Номинации (4):
Лучший грим/прически
Лучшая работа художника-постановщика
Премия имени Дэвида Лина за достижения в режиссуре (Мэл Гибсон)
Премия имени Энтони Эскуита за достижения в создании музыки к фильму

Сатурн, 1996 год
Номинации (3):
Лучшие костюмы
Лучшая музыка
Лучший приключенческий фильм или боевик
Complete name : D:\Braveheart.1995.2160p.BluRay.REMUX.HEVC.DTS-HD.MA.TrueHD.7.1.Atmos-SpaceHD13.mkv
Format : Matroska
Format version : Version 4 / Version 2
File size : 89.8 GiB
Duration : 2 h 57 min
Overall bit rate mode : Variable
Overall bit rate : 72.3 Mb/s
Movie name : Braveheart.1995.2160p.BluRay.REMUX.HEVC.DTS-HD.MA.TrueHD.7.1.Atmos-SpaceHD13
Encoded date : UTC 2018-05-17 12:28:18
Writing application : mkvmerge v22.0.0 ('At The End Of The World') 64-bit
Writing library : libebml v1.3.5 + libmatroska v1.4.8

Video #1
ID : 1
Format : HEVC
Format/Info : High Efficiency Video Coding
Commercial name : HDR10
Format profile : Main [email protected]@High
Codec ID : V_MPEGH/ISO/HEVC
Duration : 2 h 57 min
Bit rate : 51.6 Mb/s
Width : 3 840 pixels
Height : 2 160 pixels
Display aspect ratio : 16:9
Frame rate mode : Constant
Frame rate : 23.976 (24000/1001) FPS
Color space : YUV
Chroma subsampling : 4:2:0 (Type 2)
Bit depth : 10 bits
Bits/(Pixel*Frame) : 0.259
Stream size : 64.0 GiB (71%)
Title : Braveheart.1995.2160p.BluRay.REMUX.HEVC.DTS-HD.MA.TrueHD.7.1.Atmos-SpaceHD13
Default : Yes
Forced : No
Color range : Limited
Color primaries : BT.2020
Transfer characteristics : PQ
Matrix coefficients : BT.2020 non-constant
Mastering display color pri : BT.709
Mastering display luminance : min: 0.0001 cd/m2, max: 1000 cd/m2

Video #2
ID : 2
Format : HEVC
Format/Info : High Efficiency Video Coding
Commercial name : HDR10
Format profile : Main [email protected]@High
Codec ID : V_MPEGH/ISO/HEVC
Duration : 2 h 57 min
Bit rate : 5 857 kb/s
Width : 1 920 pixels
Height : 1 080 pixels
Display aspect ratio : 16:9
Frame rate mode : Constant
Frame rate : 23.976 (24000/1001) FPS
Color space : YUV
Chroma subsampling : 4:2:0 (Type 2)
Bit depth : 10 bits
Bits/(Pixel*Frame) : 0.118
Stream size : 7.27 GiB (8%)
Title : Braveheart.1995.2160p.BluRay.REMUX.HEVC.DTS-HD.MA.TrueHD.7.1.Atmos-SpaceHD13
Default : No
Forced : No
Color range : Limited
Color primaries : BT.2020
Transfer characteristics : PQ
Matrix coefficients : BT.2020 non-constant
Mastering display color pri : BT.709
Mastering display luminance : min: 0.0001 cd/m2, max: 1000 cd/m2

Audio #1
ID : 3
Format : DTS
Format/Info : Digital Theater Systems
Codec ID : A_DTS
Duration : 2 h 57 min
Bit rate mode : Constant
Bit rate : 768 kb/s
Channel(s) : 6 channels
Channel positions : Front: L C R, Side: L R, LFE
Sampling rate : 48.0 kHz
Frame rate : 93.750 FPS (512 SPF)
Bit depth : 24 bits
Compression mode : Lossy
Stream size : 976 MiB (1%)
Title : Braveheart.1995.2160p.BluRay.REMUX.HEVC.DTS-HD.MA.TrueHD.7.1.Atmos-SpaceHD13.Blu-ray CEE
Language : Russian
Default : Yes
Forced : Yes

Audio #2
ID : 4
Format : DTS
Format/Info : Digital Theater Systems
Codec ID : A_DTS
Duration : 2 h 57 min
Bit rate mode : Constant
Bit rate : 1 510 kb/s
Channel(s) : 6 channels
Channel positions : Front: L C R, Side: L R, LFE
Sampling rate : 48.0 kHz
Frame rate : 93.750 FPS (512 SPF)
Bit depth : 24 bits
Compression mode : Lossy
Stream size : 1.87 GiB (2%)
Title : Braveheart.1995.2160p.BluRay.REMUX.HEVC.DTS-HD.MA.TrueHD.7.1.Atmos-SpaceHD13.А.Гаврилов
Language : Russian
Default : No
Forced : No

Audio #3
ID : 5
Format : AC-3
Format/Info : Audio Coding 3
Codec ID : A_AC3
Duration : 2 h 57 min
Bit rate mode : Constant
Bit rate : 192 kb/s
Channel(s) : 2 channels
Channel positions : Front: L R
Sampling rate : 48.0 kHz
Frame rate : 31.250 FPS (1536 SPF)
Bit depth : 16 bits
Compression mode : Lossy
Stream size : 244 MiB (0%)
Title : Braveheart.1995.2160p.BluRay.REMUX.HEVC.DTS-HD.MA.TrueHD.7.1.Atmos-SpaceHD13.UA
Language : Ukrainian
Service kind : Complete Main
Default : No
Forced : No

Audio #4
ID : 6
Format : AC-3
Format/Info : Audio Coding 3
Codec ID : A_AC3
Duration : 2 h 57 min
Bit rate mode : Constant
Bit rate : 192 kb/s
Channel(s) : 2 channels
Channel positions : Front: L R
Sampling rate : 48.0 kHz
Frame rate : 31.250 FPS (1536 SPF)
Bit depth : 16 bits
Compression mode : Lossy
Stream size : 244 MiB (0%)
Title : Braveheart.1995.2160p.BluRay.REMUX.HEVC.DTS-HD.MA.TrueHD.7.1.Atmos-SpaceHD13.UA2
Language : Ukrainian
Service kind : Complete Main
Default : No
Forced : No

Audio #5
ID : 7
Format : TrueHD
Format profile : TrueHD+Atmos / TrueHD
Codec ID : A_TRUEHD
Duration : 2 h 57 min
Bit rate mode : Variable
Bit rate : 5 106 kb/s
Maximum bit rate : 8 013 kb/s
Channel(s) : Object Based / 8 channels
Channel positions : Object Based / Front: L C R, Side: L R, Back: L R, LFE
Sampling rate : / 48.0 kHz
Frame rate : 1 200.000 FPS (40 SPF)
Compression mode : Lossless
Delay relative to video : 2 s 169 ms
Stream size : 6.34 GiB (7%)
Title : Braveheart.1995.2160p.BluRay.REMUX.HEVC.DTS-HD.MA.TrueHD.7.1.Atmos-SpaceHD13
Language : English
Default : No
Forced : No

Audio #6
ID : 8
Format : DTS
Format/Info : Digital Theater Systems
Format profile : MA / Core
Codec ID : A_DTS
Duration : 2 h 57 min
Bit rate mode : Variable / Constant
Bit rate : 4 253 kb/s / 1 509 kb/s
Channel(s) : 8 channels / 6 channels
Channel positions : Front: L C R, Side: L R, Back: L R, LFE / Front: L C R, Side: L R, LFE
Sampling rate : 48.0 kHz
Frame rate : 93.750 FPS (512 SPF)
Bit depth : 24 bits
Compression mode : Lossless / Lossy
Stream size : 5.28 GiB (6%)
Title : Braveheart.1995.2160p.BluRay.REMUX.HEVC.DTS-HD.MA.TrueHD.7.1.Atmos-SpaceHD13
Language : English
Default : No
Forced : No

Audio #7
ID : 9
Format : AC-3
Format/Info : Audio Coding 3
Codec ID : A_AC3
Duration : 2 h 57 min
Bit rate mode : Constant
Bit rate : 640 kb/s
Channel(s) : 6 channels
Channel positions : Front: L C R, Side: L R, LFE
Sampling rate : 48.0 kHz
Frame rate : 31.250 FPS (1536 SPF)
Bit depth : 16 bits
Compression mode : Lossy
Delay relative to video : 2 s 169 ms
Stream size : 813 MiB (1%)
Title : Braveheart.1995.2160p.BluRay.REMUX.HEVC.DTS-HD.MA.TrueHD.7.1.Atmos-SpaceHD13
Language : English
Service kind : Complete Main
Default : No
Forced : No

Audio #8
ID : 10
Format : AC-3
Format/Info : Audio Coding 3
Codec ID : A_AC3
Duration : 2 h 57 min
Bit rate mode : Constant
Bit rate : 640 kb/s
Channel(s) : 6 channels
Channel positions : Front: L C R, Side: L R, LFE
Sampling rate : 48.0 kHz
Frame rate : 31.250 FPS (1536 SPF)
Bit depth : 16 bits
Compression mode : Lossy
Delay relative to video : 2 s 169 ms
Stream size : 813 MiB (1%)
Title : Braveheart.1995.2160p.BluRay.REMUX.HEVC.DTS-HD.MA.TrueHD.7.1.Atmos-SpaceHD13
Language : French
Service kind : Complete Main
Default : No
Forced : No

Audio #9
ID : 11
Format : AC-3
Format/Info : Audio Coding 3
Codec ID : A_AC3
Duration : 2 h 57 min
Bit rate mode : Constant
Bit rate : 640 kb/s
Channel(s) : 6 channels
Channel positions : Front: L C R, Side: L R, LFE
Sampling rate : 48.0 kHz
Frame rate : 31.250 FPS (1536 SPF)
Bit depth : 16 bits
Compression mode : Lossy
Delay relative to video : 2 s 169 ms
Stream size : 813 MiB (1%)
Title : Braveheart.1995.2160p.BluRay.REMUX.HEVC.DTS-HD.MA.TrueHD.7.1.Atmos-SpaceHD13
Language : Spanish
Service kind : Complete Main
Default : No
Forced : No

Audio #10
ID : 12
Format : AC-3
Format/Info : Audio Coding 3
Codec ID : A_AC3
Duration : 2 h 57 min
Bit rate mode : Constant
Bit rate : 640 kb/s
Channel(s) : 6 channels
Channel positions : Front: L C R, Side: L R, LFE
Sampling rate : 48.0 kHz
Frame rate : 31.250 FPS (1536 SPF)
Bit depth : 16 bits
Compression mode : Lossy
Delay relative to video : 2 s 169 ms
Stream size : 813 MiB (1%)
Title : Braveheart.1995.2160p.BluRay.REMUX.HEVC.DTS-HD.MA.TrueHD.7.1.Atmos-SpaceHD13
Language : English
Service kind : Complete Main
Default : No
Forced : No

Audio #11
ID : 13
Format : AC-3
Format/Info : Audio Coding 3
Codec ID : A_AC3
Duration : 2 h 57 min
Bit rate mode : Constant
Bit rate : 224 kb/s
Channel(s) : 2 channels
Channel positions : Front: L R
Sampling rate : 48.0 kHz
Frame rate : 31.250 FPS (1536 SPF)
Bit depth : 16 bits
Compression mode : Lossy
Delay relative to video : 2 s 169 ms
Stream size : 285 MiB (0%)
Title : Braveheart.1995.2160p.BluRay.REMUX.HEVC.DTS-HD.MA.TrueHD.7.1.Atmos-SpaceHD13
Language : English
Service kind : Complete Main
Default : No
Forced : No

Text #1
ID : 14
Format : PGS
Muxing mode : zlib
Codec ID : S_HDMV/PGS
Codec ID/Info : Picture based subtitle format used on BDs/HD-DVDs
Duration : 1 h 17 min
Bit rate : 1 748 b/s
Count of elements : 68
Stream size : 988 KiB (0%)
Language : Russian
Default : No
Forced : No

Text #2
ID : 15
Format : PGS
Muxing mode : zlib
Codec ID : S_HDMV/PGS
Codec ID/Info : Picture based subtitle format used on BDs/HD-DVDs
Duration : 2 h 48 min
Bit rate : 27.6 kb/s
Count of elements : 2024
Stream size : 33.3 MiB (0%)
Language : Russian
Default : Yes
Forced : No

Text #3
ID : 16
Format : PGS
Muxing mode : zlib
Codec ID : S_HDMV/PGS
Codec ID/Info : Picture based subtitle format used on BDs/HD-DVDs
Duration : 2 h 48 min
Bit rate : 18.9 kb/s
Count of elements : 2520
Stream size : 22.8 MiB (0%)
Title : English-PGS
Language : English
Default : No
Forced : No

Text #4
ID : 17
Format : PGS
Muxing mode : zlib
Codec ID : S_HDMV/PGS
Codec ID/Info : Picture based subtitle format used on BDs/HD-DVDs
Duration : 2 h 48 min
Bit rate : 21.6 kb/s
Count of elements : 2846
Stream size : 26.0 MiB (0%)
Title : English-SDH-PGS
Language : English
Default : No
Forced : No

Text #5
ID : 18
Format : PGS
Muxing mode : zlib
Codec ID : S_HDMV/PGS
Codec ID/Info : Picture based subtitle format used on BDs/HD-DVDs
Duration : 2 h 49 min
Bit rate : 19.7 kb/s
Count of elements : 2536
Stream size : 23.9 MiB (0%)
Title : French-PGS
Language : French
Default : No
Forced : No

Text #6
ID : 19
Format : PGS
Muxing mode : zlib
Codec ID : S_HDMV/PGS
Codec ID/Info : Picture based subtitle format used on BDs/HD-DVDs
Duration : 2 h 49 min
Bit rate : 18.0 kb/s
Count of elements : 2600
Stream size : 21.9 MiB (0%)
Title : Spanish-PGS
Language : Spanish
Default : No
Forced : No

Text #7
ID : 20
Format : PGS
Muxing mode : zlib
Codec ID : S_HDMV/PGS
Codec ID/Info : Picture based subtitle format used on BDs/HD-DVDs
Duration : 2 h 49 min
Bit rate : 27.7 kb/s
Count of elements : 2682
Stream size : 33.6 MiB (0%)
Title : English-COMMENTARY-PGS
Language : English
Default : No
Forced : No

Text #8
ID : 21
Format : PGS
Muxing mode : zlib
Codec ID : S_HDMV/PGS
Codec ID/Info : Picture based subtitle format used on BDs/HD-DVDs
Duration : 2 h 49 min
Bit rate : 23.8 kb/s
Count of elements : 2682
Stream size : 28.9 MiB (0%)
Title : French-COMMENTARY-PGS
Language : French
Default : No
Forced : No

Text #9
ID : 22
Format : PGS
Muxing mode : zlib
Codec ID : S_HDMV/PGS
Codec ID/Info : Picture based subtitle format used on BDs/HD-DVDs
Duration : 2 h 49 min
Bit rate : 25.9 kb/s
Count of elements : 2682
Stream size : 31.5 MiB (0%)
Title : Spanish-COMMENTARY-PGS
Language : Spanish
Default : No
Forced : No

Text #10
ID : 23
Format : PGS
Muxing mode : zlib
Codec ID : S_HDMV/PGS
Codec ID/Info : Picture based subtitle format used on BDs/HD-DVDs
Duration : 1 h 47 min
Bit rate : 178 b/s
Count of elements : 20
Stream size : 140 KiB (0%)
Title : French-FORCED-PGS
Language : French
Default : No
Forced : No

Text #11
ID : 24
Format : PGS
Muxing mode : zlib
Codec ID : S_HDMV/PGS
Codec ID/Info : Picture based subtitle format used on BDs/HD-DVDs
Duration : 1 h 47 min
Bit rate : 821 b/s
Count of elements : 74
Stream size : 646 KiB (0%)
Title : Spanish-FORCED-PGS
Language : Spanish
Default : No
Forced : No

Menu
00:00:00.000 : en:Chapter 1
00:07:25.528 : en:Chapter 2
00:16:24.441 : en:Chapter 3
00:22:00.694 : en:Chapter 4
00:34:16.888 : en:Chapter 5
00:39:49.678 : en:Chapter 6
00:56:04.986 : en:Chapter 7
01:00:01.264 : en:Chapter 8
01:07:28.044 : en:Chapter 9
01:11:51.932 : en:Chapter 10
01:19:01.528 : en:Chapter 11
01:33:03.202 : en:Chapter 12
01:43:44.718 : en:Chapter 13
01:53:55.453 : en:Chapter 14
01:58:58.464 : en:Chapter 15
02:17:15.477 : en:Chapter 16
02:24:18.900 : en:Chapter 17
02:28:49.795 : en:Chapter 18
02:34:12.409 : en:Chapter 19
02:36:32.091 : en:Chapter 20
02:46:53.878 : en:Chapter 21
02:50:43.066 : en:Chapter 22



Скачать Храброе сердце через торрент https://b.radikal.ru/b04/1805/c0/a58cfa889c29.png Скачать, смотреть онлайн Храброе сердце бесплантно в хорошем качестве Описание: Действие фильма начинается в 1280 году в Шотландии. Это история легендарного национального героя Уильяма Уоллеса, посвятившего ... 10 10 5
Info! Золотая раздача, скачанное не засчитывается.
Торрент: Зарегистрирован [2018-05-17 15:37] · скачан: 48 раз
Статус: √ проверено
Размер: 89.82 GB
Как cкачать? Как скачать Храброе сердце через торрент | UTorrent

% Раздел Тема Автор DL S | L
Ultra HD (UHD: 2K, 4K, 8K) [ 72.09 GB ] Храброе сердце / Braveheart | DUB | 2160p sheker187 Скачать
1 | 0
Фильмы [HD 720p, 1080p] (Хороший звук DUB, MVO) [ 7.8 GB ] Храброе сердце / Braveheart | Лицензия | 1080p, HEVC (10bit Мичман37 Скачать
1 | 0
Ultra HD (UHD: 2K, 4K, 8K) [ 119.39 GB ] Храброе сердце / Braveheart | DUB + 9xMVO + 3xAVO | 2160p sheker187 Скачать
1 | 0
Ultra HD (UHD: 2K, 4K, 8K) [ 18.61 GB ] Храброе сердце / Braveheart | Дубляж | HDRip 2160p, HEVC (10bit HANNIBALL Скачать
1 | 0
Ultra HD (UHD: 2K, 4K, 8K) [ 80.06 GB ] Храброе сердце / Braveheart | DUB + 7xMVO + 4xAVO + DVO + VO | 2160p sheker187 Скачать
1 | 0
Ultra HD (UHD: 2K, 4K, 8K) [ 55.24 GB ] Храброе сердце / Braveheart | DUB + AVO | 2160p sheker187 Скачать
1 | 0
Фильмы (BDRip, HDrip-AVC) (48-60 fps) [ 3.95 GB ] Храброе сердце / Braveheart | | BDRip-AVC, 60fps, Dub Tiberiumsun69 Скачать
12 | 1

28-11-2019 20:33  


Отключить вcю реклaмy на сайте, в т.ч. и в плеере онлайн просмотра!

    Дорогой пользователь! Огромная просьба, поблагодарите релизера, оцените раздачу и оставьте свои комментарий, если Вы скачали Храброе сердце через торрент бесплатно!!
    Комментировать посты могут только пользователи прошедшие не сложную регистрацию
    Показать сообщения:    


    Храброе сердце через торрент
    Скачать бесплатно Храброе сердце
    Храброе сердце скачать торрент
    Храброе сердце смотреть онлайн
    Cкачать фильм Храброе сердце бесплатно
    Храброе сердце скачать торрент в хорошем качестве
    Храброе сердце смотреть онлайн бесплатно в хорошем качестве
    Вы не можете начинать темы
    Вы не можете отвечать на сообщения
    Вы не можете редактировать свои сообщения
    Вы не можете удалять свои сообщения
    Вы не можете голосовать в опросах
    Вы не можете прикреплять файлы к сообщениям
    Вы можете скачивать файлы
    Храброе сердце / Braveheart [1995, драма, военный, биография, UHD BDRemux 2160p] Дубляж + AVO [А.Гаврилов] смотреть онлайн, скачать торрент picoco.icu