Достать ножи: Стеклянная луковица

MVO

Добыча

Дубляж

Уэнсдэй

1 сезон

Тор

Дубляж

13 клиническая

1 сезон

Жестокая ночь

MVO

Одни из нас

1 сезон

Deluxe

pack

Рекомендуем

30

Пиратка

ВАЖНО

ВАЖНО

Ghostwire

Пиратка

jed

RePack

nioh2

RePack

RDR2

RePack

NEED FOR SPEED™ PAYBACK

RePack

скачать торрент

Кинопоиск HD

Острые козырьки 6 сезон

6 сезон

FAR CRY 6

RePack

скачать торрент

Лицензия

скачать торрент

MVO

1

1 сезон

скачать торрент

1 сезон

скачать торрент

Лицензия

  

Звёздные войны: Последние джедаи / Star Wars: Episode VIII - The Last Jedi (Райан Джонсон) [2017, фантастика, фэнтези, боевик, UHD BDRip 2160p] Дубляж + AVO [Живов]

Звёздные войны: Последние джедаи через торрент 5050.piratbit.fun

Размер: 33.11 GB | Добавлен: 4 года 8 мес. назад | Торрент скачан:132 раза
Смотреть онлайн | Скачать | Поддержите нас   

18-05-2018 04:28 Звёздные войны: Последние джедаи Скачать торрент  

Звёздные войны: Последние джедаи / Star Wars: Episode VIII - The Last Jedi

Год выпуска: 2017
Страна: США
Жанр: фантастика, фэнтези, боевик, приключения
Продолжительность: 02:31:51
Перевод: Дублированный, авторский
Субтитры: Русские (форсированные, полные), english (SDH Colored, Full)
Режиссер: Райан Джонсон
В ролях:

Марк Хэмилл (Luke Skywalker / Dobbu Scay), Кэрри Фишер (Leia Organa), Адам Драйвер (Kylo Ren), Дэйзи Ридли (Rey), Джон Бойега (Finn), Оскар Айзек (Poe Dameron), Энди Серкис (Snoke), Лупита Нионго (Maz Kanata), Донал Глисон (General Hux), Энтони Дэниелс (C-3PO), Гвендолин Кристи (Captain Phasma), Келли Мари Трэн (Rose Tico)
Описание:
Новая история о противостоянии света и тьмы, добра и зла начинается после гибели Хана Соло. В Галактике, где Первый Орден и Сопротивление яростно сражаются друг с другом в войне, героиня Рей пробудила в себе Силу. Но что произойдет, когда она встретится с единственным оставшимся в живых рыцарем-джедаем - Люком Скайуокером?
Рейтинг:

MPAA: PG-13 - Детям до 13 лет просмотр не желателен
Качество: UHD BDRip 2160p
Формат: MKV
Видео: HEVC, HDR 24800 Мбит/с, 3840x1608, 23.976 Кадр/с
Звук #1: Русский (Дублированный), AC3, 6ch (L, C, R, Ls, Rs +LFE), 640 кбит/с |лицензия|
Звук #2: Русский (Авторский), AC3, 6ch (L, C, R, Ls, Rs +LFE), 448 кбит/с |Живов|
Звук #3: Русский (Авторский), DTS-HD MA, 8ch (L, C, R, Ls, Rs +LFE), 4642 кбит/с |Живов|
Звук #4: Английский (Оригинал), AC3, 6ch (L, C, R, Ls, Rs +LFE), 640 кбит/с
Навигация по главам: Есть
Общее
Уникальный идентификатор : 234701335202286885554232197255483192128 (0xB091D53BE87924BBA8E13213FE6D7340)
Полное имя : H:\Star.Wars.The.Last.Jedi.2017.2160p.BluRay.x265.10bit.HDR.UHD.4K.BDRip.Master5.mkv
Формат : Matroska
Версия формата : Version 4 / Version 2
Размер файла : 33,1 Гбайт
Продолжительность : 2 ч. 31 м.
Общий поток : 31,2 Мбит/сек
Название фильма : Star.Wars.The.Last.Jedi.2017.2160p.BluRay.x265.10bit.HDR.UHD.4K.BDRip.Master5
Дата кодирования : UTC 2018-04-27 20:30:09
Программа кодирования : mkvmerge v8.1.0 ('Psychedelic Postcard') 32bit
Библиотека кодирования : libebml v1.3.1 + libmatroska v1.4.2
Обложка : Yes
Attachments : cover.jpg.jpg

Видео
Идентификатор : 1
Формат : HEVC
Формат/Информация : High Efficiency Video Coding
Профиль формата : Main [email protected]@High
Идентификатор кодека : V_MPEGH/ISO/HEVC
Продолжительность : 2 ч. 31 м.
Битрейт : 24,8 Мбит/сек
Ширина : 3840 пикселей
Высота : 1608 пикселей
Соотношение сторон : 2,40:1
Режим частоты кадров : Постоянный
Частота кадров : 23,976 (24000/1001) кадра/сек
Цветовое пространство : YUV
Субдискретизация насыщенности : 4:2:0 (Type 2)
Битовая глубина : 10 бит
Бит/(Пиксели*Кадры) : 0.168
Размер потока : 26,4 Гбайт (80%)
Заголовок : Star.Wars.The.Last.Jedi.2017.2160p.BluRay.x265.10bit.HDR.UHD.4K.BDRip.Master5
Библиотека кодирования : x265 2.7+3-0b781d592c8e:[Windows][GCC 6.3.0][64 bit] 10bit
Настройки программы : cpuid=1173503 / frame-threads=4 / numa-pools=16 / wpp / no-pmode / no-pme / no-psnr / no-ssim / log-level=2 / input-csp=1 / input-res=3840x1608 / interlace=0 / total-frames=218462 / level-idc=51 / high-tier=1 / uhd-bd=0 / ref=4 / no-allow-non-conformance / repeat-headers / annexb / aud / hrd / info / hash=0 / no-temporal-layers / no-open-gop / min-keyint=24 / keyint=240 / gop-lookahead=0 / bframes=4 / b-adapt=2 / b-pyramid / bframe-bias=0 / rc-lookahead=25 / lookahead-slices=4 / scenecut=40 / radl=0 / no-intra-refresh / ctu=64 / min-cu-size=8 / rect / no-amp / max-tu-size=32 / tu-inter-depth=1 / tu-intra-depth=1 / limit-tu=0 / rdoq-level=2 / dynamic-rd=0.00 / no-ssim-rd / signhide / no-tskip / nr-intra=0 / nr-inter=0 / no-constrained-intra / no-strong-intra-smoothing / max-merge=3 / limit-refs=3 / limit-modes / me=3 / subme=3 / merange=57 / temporal-mvp / weightp / no-weightb / no-analyze-src-pics / deblock=-3:-3 / no-sao / no-sao-non-deblock / rd=4 / no-early-skip / rskip / no-fast-intra / no-tskip-fast / no-cu-lossless / no-b-intra / no-splitrd-skip / rdpenalty=0 / psy-rd=2.00 / psy-rdoq=1.00 / no-rd-refine / no-lossless / cbqpoffs=0 / crqpoffs=0 / rc=crf / crf=17.0 / qcomp=0.60 / qpstep=4 / stats-write=0 / stats-read=0 / vbv-maxrate=160000 / vbv-bufsize=160000 / vbv-init=0.9 / crf-max=0.0 / crf-min=0.0 / ipratio=1.40 / pbratio=1.30 / aq-mode=1 / aq-strength=1.00 / cutree / zone-count=0 / no-strict-cbr / qg-size=32 / no-rc-grain / qpmax=69 / qpmin=0 / no-const-vbv / sar=1 / overscan=0 / videoformat=5 / range=0 / colorprim=9 / transfer=16 / colormatrix=9 / chromaloc=1 / chromaloc-top=2 / chromaloc-bottom=2 / display-window=0 / master-display=G(13250,34500)B(7500,3000)R(34000,16000)WP(15635,16450)L(10000000,20) / max-cll=0,0 / min-luma=0 / max-luma=1023 / log2-max-poc-lsb=8 / vui-timing-info / vui-hrd-info / slices=1 / no-opt-qp-pps / no-opt-ref-list-length-pps / no-multi-pass-opt-rps / scenecut-bias=0.05 / no-opt-cu-delta-qp / no-aq-motion / hdr / hdr-opt / no-dhdr10-opt / analysis-reuse-level=5 / scale-factor=0 / refine-intra=0 / refine-inter=0 / refine-mv=0 / no-limit-sao / ctu-info=0 / no-lowpass-dct / refine-mv-type=0 / copy-pic=1
Язык : English
Default : Да
Forced : Нет
Цветовой диапазон : Limited
Основные цвета : BT.2020
Характеристики трансфера : SMPTE ST 2084
Коэффициенты матрицы : BT.2020 non-constant
MasteringDisplay_ColorPrimaries : R: x=0.680000 y=0.320000, G: x=0.265000 y=0.690000, B: x=0.150000 y=0.060000, White point: x=0.312700 y=0.329000
MasteringDisplay_Luminance : min: 0.0020 cd/m2, max: 1000.0000 cd/m2

Аудио #1
Идентификатор : 2
Формат : AC-3
Формат/Информация : Audio Coding 3
Расширение режима : CM (complete main)
Параметр Endianness формата : Big
Идентификатор кодека : A_AC3
Продолжительность : 2 ч. 31 м.
Вид битрейта : Постоянный
Битрейт : 640 Кбит/сек
Каналы : 6 каналов
Расположение каналов : Front: L C R, Side: L R, LFE
Частота : 48,0 КГц
Частота кадров : 31,250 кадров/сек (1536 spf)
Метод сжатия : С потерями
Размер потока : 695 Мбайт (2%)
Заголовок : Дубляж [License]
Язык : Russian
Default : Да
Forced : Да

Аудио #2
Идентификатор : 3
Формат : AC-3
Формат/Информация : Audio Coding 3
Расширение режима : CM (complete main)
Параметр Endianness формата : Big
Идентификатор кодека : A_AC3
Продолжительность : 2 ч. 31 м.
Вид битрейта : Постоянный
Битрейт : 448 Кбит/сек
Каналы : 6 каналов
Расположение каналов : Front: L C R, Side: L R, LFE
Частота : 48,0 КГц
Частота кадров : 31,250 кадров/сек (1536 spf)
Метод сжатия : С потерями
Размер потока : 487 Мбайт (1%)
Заголовок : AVO (Givov)
Язык : Russian
Default : Нет
Forced : Нет

Аудио #3
Идентификатор : 4
Формат : DTS
Формат/Информация : Digital Theater Systems
Профиль формата : MA / Core
Режим : 16
Параметр Endianness формата : Big
Идентификатор кодека : A_DTS
Продолжительность : 2 ч. 31 м.
Вид битрейта : Переменный / Постоянный
Битрейт : 4642 Кбит/сек / 1509 Кбит/сек
Каналы : 8 каналов / 6 каналов
Расположение каналов : Front: L C R, Side: L R, Back: L R, LFE / Front: L C R, Side: L R, LFE
Частота : 48,0 КГц
Частота кадров : 93,750 кадра/сек (512 spf)
Битовая глубина : 24 бит
Метод сжатия : Без потерь / Lossy
Размер потока : 4,92 Гбайт (15%)
Заголовок : AVO (Givov)
Язык : Russian
Default : Нет
Forced : Нет

Аудио #4
Идентификатор : 5
Формат : AC-3
Формат/Информация : Audio Coding 3
Расширение режима : CM (complete main)
Параметр Endianness формата : Big
Идентификатор кодека : A_AC3
Продолжительность : 2 ч. 31 м.
Вид битрейта : Постоянный
Битрейт : 640 Кбит/сек
Каналы : 6 каналов
Расположение каналов : Front: L C R, Side: L R, LFE
Частота : 48,0 КГц
Частота кадров : 31,250 кадров/сек (1536 spf)
Метод сжатия : С потерями
Размер потока : 695 Мбайт (2%)
Язык : English
Default : Нет
Forced : Нет

Текст #1
Идентификатор : 6
Формат : UTF-8
Идентификатор кодека : S_TEXT/UTF8
Идентификатор кодека/Информация : UTF-8 Plain Text
Продолжительность : 2 ч. 22 м.
Битрейт : 1 бит/сек
Count of elements : 16
Размер потока : 1,05 Кбайт (0%)
Заголовок : Forced
Язык : Russian
Default : Да
Forced : Да

Текст #2
Идентификатор : 7
Формат : UTF-8
Идентификатор кодека : S_TEXT/UTF8
Идентификатор кодека/Информация : UTF-8 Plain Text
Продолжительность : 2 ч. 20 м.
Битрейт : 64 бит/сек
Count of elements : 1580
Размер потока : 66,9 Кбайт (0%)
Заголовок : Full
Язык : Russian
Default : Нет
Forced : Нет

Текст #3
Идентификатор : 8
Формат : UTF-8
Идентификатор кодека : S_TEXT/UTF8
Идентификатор кодека/Информация : UTF-8 Plain Text
Продолжительность : 2 ч. 23 м.
Битрейт : 73 бит/сек
Count of elements : 1980
Размер потока : 77,4 Кбайт (0%)
Заголовок : SDH
Язык : Russian
Default : Нет
Forced : Нет

Текст #4
Идентификатор : 9
Формат : UTF-8
Идентификатор кодека : S_TEXT/UTF8
Идентификатор кодека/Информация : UTF-8 Plain Text
Продолжительность : 2 ч. 20 м.
Битрейт : 39 бит/сек
Count of elements : 1569
Размер потока : 40,4 Кбайт (0%)
Заголовок : Full
Язык : English
Default : Нет
Forced : Нет

Текст #5
Идентификатор : 10
Формат : UTF-8
Идентификатор кодека : S_TEXT/UTF8
Идентификатор кодека/Информация : UTF-8 Plain Text
Продолжительность : 2 ч. 23 м.
Битрейт : 45 бит/сек
Count of elements : 1897
Размер потока : 47,9 Кбайт (0%)
Заголовок : SDH
Язык : English
Default : Нет
Forced : Нет

Текст #6
Идентификатор : 11
Формат : UTF-8
Идентификатор кодека : S_TEXT/UTF8
Идентификатор кодека/Информация : UTF-8 Plain Text
Продолжительность : 2 ч. 23 м.
Битрейт : 64 бит/сек
Count of elements : 1898
Размер потока : 68,3 Кбайт (0%)
Заголовок : SDH Colored
Язык : English
Default : Нет
Forced : Нет

Меню
00:00:00.000 : en:00:00:00.000
00:00:18.644 : en:00:00:18.644
00:01:45.731 : en:00:01:45.731
00:03:11.817 : en:00:03:11.817
00:07:43.296 : en:00:07:43.296
00:12:48.434 : en:00:12:48.434
00:13:44.574 : en:00:13:44.574
00:16:29.280 : en:00:16:29.280
00:19:59.281 : en:00:19:59.281
00:22:51.370 : en:00:22:51.370
00:26:04.980 : en:00:26:04.980
00:27:22.850 : en:00:27:22.850
00:31:24.758 : en:00:31:24.758
00:32:54.681 : en:00:32:54.681
00:35:27.667 : en:00:35:27.667
00:38:11.498 : en:00:38:11.498
00:41:53.428 : en:00:41:53.428
00:44:29.542 : en:00:44:29.542
00:46:51.475 : en:00:46:51.475
00:51:41.932 : en:00:51:41.932
00:53:50.060 : en:00:53:50.060
00:55:41.505 : en:00:55:41.505
00:57:39.581 : en:00:57:39.581
00:59:16.636 : en:00:59:16.636
01:02:05.847 : en:01:02:05.847
01:03:07.701 : en:01:03:07.701
01:05:41.729 : en:01:05:41.729
01:07:03.478 : en:01:07:03.478
01:10:25.721 : en:01:10:25.721
01:13:30.323 : en:01:13:30.323
01:17:43.450 : en:01:17:43.450
01:20:53.057 : en:01:20:53.057
01:24:17.970 : en:01:24:17.970
01:26:23.220 : en:01:26:23.220
01:27:59.524 : en:01:27:59.524
01:30:49.361 : en:01:30:49.361
01:32:54.569 : en:01:32:54.569
01:35:53.706 : en:01:35:53.706
01:37:10.616 : en:01:37:10.616
01:39:12.864 : en:01:39:12.864
01:42:07.663 : en:01:42:07.663
01:45:03.714 : en:01:45:03.714
01:49:35.694 : en:01:49:35.694
01:52:20.609 : en:01:52:20.609
01:56:04.749 : en:01:56:04.749
01:58:52.083 : en:01:58:52.083
02:03:11.134 : en:02:03:11.134
02:06:39.759 : en:02:06:39.759
02:11:43.604 : en:02:11:43.604
02:15:12.104 : en:02:15:12.104
02:20:16.700 : en:02:20:16.700
02:23:39.694 : en:02:23:39.694
Оскар, 2018 год
Номинации (4):
Лучший звук
Лучший монтаж звука
Лучшие визуальные эффекты
Лучший саундтрек

Британская академия, 2018 год
Номинации (2):
Лучший звук
Лучшие визуальные эффекты



Скачать Звёздные войны: Последние джедаи через торрент http://i100.fastpic.ru/big/2018/0315/3c/8e0e37190238f028fbd2dde58b907e3c.png Скачать, смотреть онлайн Звёздные войны: Последние джедаи бесплантно в хорошем качестве Описание: Новая история о противостоянии света и тьмы, добра и зла начинается после гибели Хана Соло. В Галактике, где Первый Орден и ... 10 10 6
Info! Золотая раздача, скачанное не засчитывается.
Торрент: Зарегистрирован [2018-05-18 04:28] · скачан: 132 раз
Статус: √ проверено
Размер: 33.11 GB
Как cкачать? Как скачать Звёздные войны: Последние джедаи через торрент | UTorrent

% Раздел Тема Автор DL S | L
Ultra HD (UHD: 2K, 4K, 8K) [ 54.36 GB ] Звездные войны: Последние джедаи / Star Wars: Episode VIII - The Last Jedi | Лицензия | BD Remux 2160p, (Dolby Vision Profile 8 bober100 Скачать
1 | 0
Фильмы (HD 720p, 1080p) (48-60 fps) [ 4.97 GB ] Звездные войны: Эпизод 8 - Последние Джедаи / Star Wars: Episode VIII - The Last Jedi | Дубляж | 720p / 60 FPS slaventi-69 Скачать
1 | 1
Ultra HD (UHD: 2K, 4K, 8K) [ 69.43 GB ] Звёздные войны: Последние джедаи / Star Wars: Episode VIII - The Last Jedi | DUB | 2160p sheker187 Скачать
1 | 1
Ultra HD (UHD: 2K, 4K, 8K) [ 49.47 GB ] Звёздные войны: Последние джедаи / Star Wars: Episode VIII - The Last Jedi | DUB | 2160p sheker187 Скачать
1 | 0
Фильмы [HD 720p, 1080p] (Хороший звук DUB, MVO) [ 7.86 GB ] Звездные войны: Последние джедаи / Star Wars: Episode VIII - The Last Jedi | AVO | 720p, Dub, 3 x AVO morfyi Скачать
1 | 0
Фильмы 2017 [DVDrip, WEB-DLRip, HDrip] (DUB, MVO) [ 4.24 GB ] Звездные войны: Последние джедаи / Star Wars: Episode VIII - The Last Jedi | AVO | BDRip-AVC killermax2013 Скачать
2 | 0
Ultra HD (UHD: 2K, 4K, 8K) [ 60.4 GB ] Звёздные войны: Последние джедаи / Star Wars: Episode VIII - The Last Jedi | DUB | 2160p sheker187 Скачать
1 | 0

28-11-2019 20:33  


Отключить вcю реклaмy на сайте, в т.ч. и в плеере онлайн просмотра!

    Дорогой пользователь! Огромная просьба, поблагодарите релизера, оцените раздачу и оставьте свои комментарий, если Вы скачали Звёздные войны: Последние джедаи через торрент бесплатно!!
    Комментировать посты могут только пользователи прошедшие не сложную регистрацию
    Показать сообщения:    


    Звёздные войны: Последние джедаи через торрент
    Скачать бесплатно Звёздные войны: Последние джедаи
    Звёздные войны: Последние джедаи скачать торрент
    Звёздные войны: Последние джедаи смотреть онлайн
    Cкачать фильм Звёздные войны: Последние джедаи бесплатно
    Звёздные войны: Последние джедаи скачать торрент в хорошем качестве
    Звёздные войны: Последние джедаи смотреть онлайн бесплатно в хорошем качестве
    Вы не можете начинать темы
    Вы не можете отвечать на сообщения
    Вы не можете редактировать свои сообщения
    Вы не можете удалять свои сообщения
    Вы не можете голосовать в опросах
    Вы не можете прикреплять файлы к сообщениям
    Вы можете скачивать файлы
    Звёздные войны: Последние джедаи / Star Wars: Episode VIII - The Last Jedi [2017, фантастика, фэнтези, боевик, UHD BDRip 2160p] Дубляж + AVO [Живов] смотреть онлайн, скачать торрент picoco.icu