Достать ножи: Стеклянная луковица

MVO

Добыча

Дубляж

Уэнсдэй

1 сезон

Тор

Дубляж

13 клиническая

1 сезон

Жестокая ночь

MVO

Одни из нас

1 сезон

Deluxe

pack

Рекомендуем

30

Пиратка

ВАЖНО

ВАЖНО

Ghostwire

Пиратка

jed

RePack

nioh2

RePack

RDR2

RePack

NEED FOR SPEED™ PAYBACK

RePack

скачать торрент

Кинопоиск HD

Острые козырьки 6 сезон

6 сезон

FAR CRY 6

RePack

скачать торрент

Лицензия

скачать торрент

MVO

1

1 сезон

скачать торрент

1 сезон

скачать торрент

Лицензия

  

2012 / 2012 (Роланд Эммерих) [2009, фантастика, боевик, приключения, UHD WEBRip 2160p] Дубляж (rus, ukr) + 2xAVO

2012 через торрент 5050.piratbit.fun

Качают: 1 [ 0 KB/s ]
Размер: 49.84 GB | Добавлен: 4 года 8 мес. назад | Торрент скачан:103 раза
Смотреть онлайн | Скачать | Поддержите нас   

19-05-2018 02:42 2012 Скачать торрент  

2012 / 2012«Узнай правду... если сможешь!»
Год выпуска: 2009
Страна: США
Жанр: фантастика, боевик, приключения
Продолжительность: 02:37:49
Перевод: Дублированный, авторский
Субтитры: Русские, английские, французские
Режиссер: Роланд Эммерих
В ролях:

Джон Кьюсак (Jackson Curtis), Аманда Пит (Kate Curtis), Чиветель Эджиофор (Adrian Helmsley), Тэнди Ньютон (Laura Wilson), Оливер Платт (Carl Anheuser), Том МакКарти (Gordon Silberman), Вуди Харрельсон (Charlie Frost), Дэнни Гловер (President Thomas Wilson), Лиам Джеймс (Noah Curtis), Морган Лили (Lilly Curtis), Златко Бурич (Yuri Karpov), Беатрис Розен (Tamara)
Описание:
Согласно календарю индейцев Майя, в 2012 году планеты солнечной системы окажутся на одной линии друг с другом, что приведет к глобальным природным катаклизмам: сильнейшие землетрясения, цунами и извержения вулканов превратят страны и целые континенты в руины. Недавно ученые подтвердили, что этот миф может стать реальностью.
Рейтинг:

MPAA: PG-13 - Детям до 13 лет просмотр не желателен
Качество: UHD WEBRip 2160p
Формат: MKV
Видео: HEVC, HDR, 31.8 Мбит/с, 3840x1600, 23.976 Кадр/с
Аудио #1: Английский / (DTS-HD MA, 6 ch, 2155 Кбит/с) - Original
Аудио #2: Английский / (DTS, 6 ch, 1509 Кбит/с) - Original
Аудио #3: Русский / (DTS-HD MA, 6 ch, 4203 Кбит/с) - AVO, Гаврилов
Аудио #4: Русский / (DTS-HD MA, 6 ch, 4209 Кбит/с) - AVO, Сербин
Аудио #5: Русский / (AC3, 6 ch, 448 Кбит/с) - Дубляж
Аудио #6: Украинский / (AC3, 2 ch, 192 Кбит/с) - Дубляж
Аудио #7: Английский / (AC3, 2 ch, 192 Кбит/с) - Original
Аудио #8: Французский / (AC3, 6 ch, 448 Кбит/с) - Original
Жорж, 2010 год
Номинации (1):
Лучший зарубежный экшн

Сатурн, 2010 год
Номинации (2):
Лучшие спецэффекты
Лучший приключенческий фильм, боевик или триллер
Знаете ли вы, что...

Специалисты НАСА за наибольшее количество научных неточностей и откровенных выдумок признали этот фильм самым антинаучным за последние годы.
Как заявил Эммерих, среди нескольких известных и исторических сооружений мира, выбранных для того, чтобы быть уничтоженными в фильме, была и Кааба в Мекке — место, к которому обращают своё лицо мусульмане всего мира во время молитвы, и где во время хаджа совершается обряд таваф. Однако в связи с предложением Клозера, сказавшего, что он не хотел бы, чтобы против него выносилась фетва из-за фильма, Кааба была убрана из списка.
Самолёт русского олигарха «Антонов-500» — создан по образу Ан-225. Похож внешне и габаритами. Основное отличие — у Ан-225 нет заднего люка, который есть у самолёта в фильме.
Название фильма отсылает к конечной дате календаря Майя. Хотя в самом календаре нет точных указаний на дату конца света, многие религиозные и культурные течения сходились на 2012 году.
Для продвижения фильма был создан шуточный видеоблог Чарли Фроста, в котором Вуди Харрельсон в образе своего персонажа рассказывает о конце света. В нём также присутствует полная версия ролика, который он по сюжету фильма показал Джексону в фургоне.

Внимание! Дальнейший список фактов Описание содержит спойлеры. Будьте осторожны.

Сын Джексона Кёртиса носит имя Ноа (Ной [библ.]), что в свою очередь является аллегорией на Ветхозаветное сказание о Потопе.

Ошибки в фильме
Внимание! Список ошибок в фильме может содержать спойлеры. Будьте осторожны.

В одном из показанных в фильме новостных сюжетов от декабря 2012 года сообщается об отмене XXX Олимпийских игр, которые на момент выхода данного сюжета должны были состояться (реальное время проведения Игр — с 27 июля по 12 августа 2012 года).
Complete name : G:\2012.2009.2160p.HDR.WEBRip.DTS-HD.MA.5.1.EN.FR.x265-SpaceHD13.mkv
Format : Matroska
Format version : Version 4 / Version 2
File size : 49.8 GiB
Duration : 2 h 37 min
Overall bit rate : 45.2 Mb/s
Movie name : 2012.2009.2160p.HDR.WEBRip.DTS-HD.MA.5.1.EN.FR.x265-SpaceHD13
Encoded date : UTC 2018-05-18 20:05:37
Writing application : mkvmerge v22.0.0 ('At The End Of The World') 64-bit
Writing library : libebml v1.3.5 + libmatroska v1.4.8

Video
ID : 1
Format : HEVC
Format/Info : High Efficiency Video Coding
Commercial name : HDR10
Format profile : Main [email protected]@Main
Codec ID : V_MPEGH/ISO/HEVC
Duration : 2 h 36 min
Bit rate : 31.8 Mb/s
Width : 3 840 pixels
Height : 1 600 pixels
Display aspect ratio : 2.40:1
Frame rate mode : Constant
Frame rate : 23.976 (24000/1001) FPS
Color space : YUV
Chroma subsampling : 4:2:0
Bit depth : 10 bits
Bits/(Pixel*Frame) : 0.216
Stream size : 34.8 GiB (70%)
Title : 2012.2009.2160p.HDR.WEBRip.DTS-HD.MA.5.1.EN.FR.x265-SpaceHD13
Default : Yes
Forced : No
Color range : Limited
Color primaries : BT.2020
Transfer characteristics : PQ
Matrix coefficients : BT.2020 non-constant
Mastering display color pri : BT.709
Mastering display luminance : min: 0.0050 cd/m2, max: 3999 cd/m2
Maximum Content Light Level : 4000 cd/m2
Maximum Frame-Average Light : 1000 cd/m2

Audio #1
ID : 2
Format : DTS
Format/Info : Digital Theater Systems
Format profile : MA / Core
Codec ID : A_DTS
Duration : 2 h 36 min
Bit rate mode : Variable / Constant
Bit rate : 2 155 kb/s / 1 509 kb/s
Channel(s) : 6 channels
Channel positions : Front: L C R, Side: L R, LFE
Sampling rate : 48.0 kHz
Frame rate : 93.750 FPS (512 SPF)
Bit depth : 16 bits
Compression mode : Lossless / Lossy
Delay relative to video : 6 ms
Stream size : 2.36 GiB (5%)
Title : 2012.2009.2160p.HDR.WEBRip.DTS-HD.MA.5.1.EN.FR.x265-SpaceHD13
Language : English
Default : No
Forced : No

Audio #2
ID : 3
Format : DTS
Format/Info : Digital Theater Systems
Codec ID : A_DTS
Duration : 2 h 36 min
Bit rate mode : Constant
Bit rate : 1 509 kb/s
Channel(s) : 6 channels
Channel positions : Front: L C R, Side: L R, LFE
Sampling rate : 48.0 kHz
Frame rate : 93.750 FPS (512 SPF)
Bit depth : 16 bits
Compression mode : Lossy
Delay relative to video : 6 ms
Stream size : 1.65 GiB (3%)
Title : 2012.2009.2160p.HDR.WEBRip.DTS-HD.MA.5.1.EN.FR.x265-SpaceHD13
Language : English
Default : No
Forced : No

Audio #3
ID : 4
Format : DTS
Format/Info : Digital Theater Systems
Format profile : MA / Core
Codec ID : A_DTS
Duration : 2 h 37 min
Bit rate mode : Variable / Constant
Bit rate : 4 203 kb/s / 1 509 kb/s
Channel(s) : 6 channels
Channel positions : Front: L C R, Side: L R, LFE
Sampling rate : 48.0 kHz
Frame rate : 93.750 FPS (512 SPF)
Bit depth : 24 bits
Compression mode : Lossless / Lossy
Stream size : 4.63 GiB (9%)
Title : 2012.2009.2160p.HDR.WEBRip.DTS-HD.MA.5.1.EN.FR.x265-SpaceHD13.Гаврилов
Language : Russian
Default : No
Forced : No

Audio #4
ID : 5
Format : DTS
Format/Info : Digital Theater Systems
Format profile : MA / Core
Codec ID : A_DTS
Duration : 2 h 37 min
Bit rate mode : Variable / Constant
Bit rate : 4 209 kb/s / 1 509 kb/s
Channel(s) : 6 channels
Channel positions : Front: L C R, Side: L R, LFE
Sampling rate : 48.0 kHz
Frame rate : 93.750 FPS (512 SPF)
Bit depth : 24 bits
Compression mode : Lossless / Lossy
Stream size : 4.64 GiB (9%)
Title : 2012.2009.2160p.HDR.WEBRip.DTS-HD.MA.5.1.EN.FR.x265-SpaceHD13.Сербин
Language : Russian
Default : No
Forced : No

Audio #5
ID : 6
Format : AC-3
Format/Info : Audio Coding 3
Codec ID : A_AC3
Duration : 2 h 37 min
Bit rate mode : Constant
Bit rate : 448 kb/s
Channel(s) : 6 channels
Channel positions : Front: L C R, Side: L R, LFE
Sampling rate : 48.0 kHz
Frame rate : 31.250 FPS (1536 SPF)
Bit depth : 16 bits
Compression mode : Lossy
Stream size : 506 MiB (1%)
Title : 2012.2009.2160p.HDR.WEBRip.DTS-HD.MA.5.1.EN.FR.x265-SpaceHD13.Дубляж
Language : Russian
Service kind : Complete Main
Default : Yes
Forced : Yes

Audio #6
ID : 7
Format : AC-3
Format/Info : Audio Coding 3
Codec ID : A_AC3
Duration : 2 h 37 min
Bit rate mode : Constant
Bit rate : 448 kb/s
Channel(s) : 6 channels
Channel positions : Front: L C R, Side: L R, LFE
Sampling rate : 48.0 kHz
Frame rate : 31.250 FPS (1536 SPF)
Bit depth : 16 bits
Compression mode : Lossy
Stream size : 506 MiB (1%)
Title : 2012.2009.2160p.HDR.WEBRip.DTS-HD.MA.5.1.EN.FR.x265-SpaceHD13
Language : Ukrainian
Service kind : Complete Main
Default : No
Forced : No

Audio #7
ID : 8
Format : AC-3
Format/Info : Audio Coding 3
Codec ID : A_AC3
Duration : 2 h 36 min
Bit rate mode : Constant
Bit rate : 192 kb/s
Channel(s) : 2 channels
Channel positions : Front: L R
Sampling rate : 48.0 kHz
Frame rate : 31.250 FPS (1536 SPF)
Bit depth : 16 bits
Compression mode : Lossy
Delay relative to video : 6 ms
Stream size : 216 MiB (0%)
Title : 2012.2009.2160p.HDR.WEBRip.DTS-HD.MA.5.1.EN.FR.x265-SpaceHD13.English commentary
Language : English
Service kind : Complete Main
Default : No
Forced : No

Audio #8
ID : 9
Format : AC-3
Format/Info : Audio Coding 3
Codec ID : A_AC3
Duration : 2 h 36 min
Bit rate mode : Constant
Bit rate : 448 kb/s
Channel(s) : 6 channels
Channel positions : Front: L C R, Side: L R, LFE
Sampling rate : 48.0 kHz
Frame rate : 31.250 FPS (1536 SPF)
Bit depth : 16 bits
Compression mode : Lossy
Delay relative to video : 6 ms
Stream size : 503 MiB (1%)
Title : 2012.2009.2160p.HDR.WEBRip.DTS-HD.MA.5.1.EN.FR.x265-SpaceHD13
Language : French
Service kind : Complete Main
Default : No
Forced : No

Text #1
ID : 10
Format : PGS
Muxing mode : zlib
Codec ID : S_HDMV/PGS
Codec ID/Info : Picture based subtitle format used on BDs/HD-DVDs
Duration : 2 h 9 min
Bit rate : 1 438 b/s
Count of elements : 222
Stream size : 1.33 MiB (0%)
Language : Russian
Default : Yes
Forced : No

Text #2
ID : 11
Format : PGS
Muxing mode : zlib
Codec ID : S_HDMV/PGS
Codec ID/Info : Picture based subtitle format used on BDs/HD-DVDs
Duration : 2 h 26 min
Bit rate : 24.6 kb/s
Count of elements : 3880
Stream size : 25.8 MiB (0%)
Language : Russian
Default : No
Forced : No

Text #3
ID : 12
Format : PGS
Muxing mode : zlib
Codec ID : S_HDMV/PGS
Codec ID/Info : Picture based subtitle format used on BDs/HD-DVDs
Duration : 2 h 26 min
Bit rate : 35.9 kb/s
Count of elements : 3797
Stream size : 37.5 MiB (0%)
Title : English
Language : English
Default : No
Forced : No

Text #4
ID : 13
Format : UTF-8
Codec ID : S_TEXT/UTF8
Codec ID/Info : UTF-8 Plain Text
Duration : 2 h 21 min
Bit rate : 1 b/s
Count of elements : 80
Stream size : 1.96 KiB (0%)
Title : Forced
Language : French
Default : No
Forced : No

Text #5
ID : 14
Format : UTF-8
Codec ID : S_TEXT/UTF8
Codec ID/Info : UTF-8 Plain Text
Duration : 2 h 26 min
Bit rate : 48 b/s
Count of elements : 1836
Stream size : 52.0 KiB (0%)
Language : French
Default : No
Forced : No



Скачать 2012 через торрент https://c.radikal.ru/c20/1805/92/7bcb0c6e82a8.png Скачать, смотреть онлайн 2012 бесплантно в хорошем качестве Описание: Согласно календарю индейцев Майя, в 2012 году планеты солнечной системы окажутся на одной линии друг с другом, что приведет к ... 10 10 4
Info! Золотая раздача, скачанное не засчитывается.
Торрент: Зарегистрирован [2018-05-19 02:42] · скачан: 103 раз
Статус: √ проверено
Размер: 49.84 GB
Как cкачать? Как скачать 2012 через торрент | UTorrent

% Раздел Тема Автор DL S | L
Ultra HD (UHD: 2K, 4K, 8K) [ 75.89 GB ] 2012 / 2012 | Лицензия | 2160p bober100 Скачать
1 | 0

28-11-2019 20:33  


Отключить вcю реклaмy на сайте, в т.ч. и в плеере онлайн просмотра!

    Дорогой пользователь! Огромная просьба, поблагодарите релизера, оцените раздачу и оставьте свои комментарий, если Вы скачали 2012 через торрент бесплатно!!
    Комментировать посты могут только пользователи прошедшие не сложную регистрацию
    Показать сообщения:    


    2012 через торрент
    Скачать бесплатно 2012
    2012 скачать торрент
    2012 смотреть онлайн
    Cкачать фильм 2012 бесплатно
    2012 скачать торрент в хорошем качестве
    2012 смотреть онлайн бесплатно в хорошем качестве
    Вы не можете начинать темы
    Вы не можете отвечать на сообщения
    Вы не можете редактировать свои сообщения
    Вы не можете удалять свои сообщения
    Вы не можете голосовать в опросах
    Вы не можете прикреплять файлы к сообщениям
    Вы можете скачивать файлы
    2012 / 2012 [2009, фантастика, боевик, приключения, UHD WEBRip 2160p] Дубляж + 2xAVO смотреть онлайн, скачать торрент picoco.icu