Достать ножи: Стеклянная луковица

MVO

Добыча

Дубляж

Уэнсдэй

1 сезон

Тор

Дубляж

13 клиническая

1 сезон

Жестокая ночь

MVO

Одни из нас

1 сезон

Deluxe

pack

Рекомендуем

30

Пиратка

ВАЖНО

ВАЖНО

Ghostwire

Пиратка

jed

RePack

nioh2

RePack

RDR2

RePack

NEED FOR SPEED™ PAYBACK

RePack

скачать торрент

Кинопоиск HD

Острые козырьки 6 сезон

6 сезон

FAR CRY 6

RePack

скачать торрент

Лицензия

скачать торрент

MVO

1

1 сезон

скачать торрент

1 сезон

скачать торрент

Лицензия

  

Кролик Питер / Peter Rabbit (Уилл Глак) [2018, мультфильм, фэнтези, комедия, приключения, семейный, UHD BDRip 2160p] Дубляж

Кролик Питер через торрент 5050.piratbit.fun

Размер: 26.28 GB | Добавлен: 4 года 8 мес. назад | Торрент скачан:26 раз
Смотреть онлайн | Скачать | Поддержите нас   

21-05-2018 04:29 Кролик Питер Скачать торрент  

Кролик Питер / Peter Rabbit«Лучшее лекарство от весеннего авитаминоза»
Год выпуска: 2018
Страна: Австралия, США
Жанр: мультфильм, фэнтези, комедия, приключения, семейный
Продолжительность: 01:34:42
Перевод: Дублированный
Субтитры: Русские, английские, украинские
Режиссер: Уилл Глак
В ролях:

Джеймс Корден (Peter Rabbit, озвучка), Файсаль Баззи (Mr. Tod, озвучка), Донал Глисон (Mr. Jeremy Fisher / Mr. Thomas McGregor), Сиа (Mrs. Tiggy-Winkle, озвучка), Колин Муди (Benjamin Bunny, озвучка), Сэм Нил (Old Mr. McGregor / Tommy Brock), Марго Робби (Flopsy / рассказчик, озвучка), Элизабет Дебики (Mopsy, озвучка), Дэйзи Ридли (Cotton-Tail, озвучка), Роуз Бирн (Bea / Jemima Puddle-Duck), Кристиан Газаль (Felix D'eer, озвучка), Ивен Лесли (Pigling Bland, озвучка)
Описание:
Фильм о приключениях маленького и непоседливого крольчонка по имени Питер, который хочет пробраться в огород к грозному фермеру и вдоволь полакомиться там фруктами и овощами.
Рейтинг:

MPAA: PG - Рекомендуется присутствие родителей
Качество: UHD BDRip 2160p [SDR]
Формат: MKV
Видео: AVC, 33.8 Mбит/с, 3840x1606, 23.976 Кадр/с
Аудио: pусский AC3, 6 ch, 384 Кбит/с
Аудио: английский TrueHD, 8 ch, 4603 Кбит/с
Аудио: английский AC3, 6 ch, 640 Кбит/с
Навигация по главам: есть
Общее
Уникальный идентификатор : 72034894254704038421885188142057845521 (0x36316A7E3A6EA913E7A18886A1F2F311)
Полное имя : Peter.Rabbit.2018.2160p.BluRay.x264.8bit.SDR.TrueHD.7.1.Atmos.mkv
Формат : Matroska
Версия формата : Version 4 / Version 2
Размер файла : 26,3 Гбайт
Продолжительность : 1 ч. 34 м.
Режим общего битрейта : Переменный
Общий поток : 39,7 Мбит/сек
Название фильма : Peter.Rabbit.2018.2160p.BluRay.x264.8bit.SDR.DTS-HD.MA.TrueHD.7.1.Atmos
Дата кодирования : UTC 2018-05-05 07:32:48
Программа кодирования : mkvmerge v23.0.0 ('The Bride Said No') 64-bit
Библиотека кодирования : libebml v1.3.6 + libmatroska v1.4.9

Видео
Идентификатор : 1
Формат : AVC
Формат/Информация : Advanced Video Codec
Профиль формата : [email protected]
Настройки формата : CABAC / 5 Ref Frames
Параметр CABAC формата : Да
Параметр RefFrames формата : 5 кадров
Идентификатор кодека : V_MPEG4/ISO/AVC
Продолжительность : 1 ч. 34 м.
Битрейт : 33,8 Мбит/сек
Ширина : 3840 пикселей
Высота : 1606 пикселей
Соотношение сторон : 2,40:1
Режим частоты кадров : Постоянный
Частота кадров : 23,976 (24000/1001) кадра/сек
Цветовое пространство : YUV
Субдискретизация насыщенности : 4:2:0
Битовая глубина : 8 бит
Тип развёртки : Прогрессивная
Бит/(Пиксели*Кадры) : 0.228
Размер потока : 22,3 Гбайт (85%)
Библиотека кодирования : x264 core 148 r2748 97eaef2
Настройки программы : cabac=1 / ref=5 / deblock=1:-1:-1 / analyse=0x3:0x113 / me=umh / subme=10 / psy=1 / psy_rd=1.00:0.15 / mixed_ref=1 / me_range=48 / chroma_me=1 / trellis=2 / 8x8dct=1 / cqm=0 / deadzone=21,11 / fast_pskip=1 / chroma_qp_offset=-3 / threads=36 / lookahead_threads=3 / sliced_threads=0 / nr=0 / decimate=0 / interlaced=0 / bluray_compat=0 / constrained_intra=0 / bframes=3 / b_pyramid=2 / b_adapt=2 / b_bias=0 / direct=3 / weightb=1 / open_gop=0 / weightp=2 / keyint=250 / keyint_min=23 / scenecut=40 / intra_refresh=0 / rc_lookahead=50 / rc=crf / mbtree=1 / crf=18.0 / qcomp=0.60 / qpmin=0 / qpmax=69 / qpstep=4 / ip_ratio=1.40 / aq=1:1.00
Default : Да
Forced : Нет

Аудио #1
Идентификатор : 2
Формат : AC-3
Формат/Информация : Audio Coding 3
Идентификатор кодека : A_AC3
Продолжительность : 1 ч. 34 м.
Вид битрейта : Постоянный
Битрейт : 384 Кбит/сек
Каналы : 6 каналов
Расположение каналов : Front: L C R, Side: L R, LFE
Частота : 48,0 КГц
Частота кадров : 31,250 кадров/сек (1536 SPF)
Битовая глубина : 16 бит
Метод сжатия : С потерями
Размер потока : 260 Мбайт (1%)
Заголовок : iTunes
Язык : Russian
ServiceKind/String : Complete Main
Default : Нет
Forced : Нет

Аудио #2
Идентификатор : 3
Формат : TrueHD
Профиль формата : TrueHD+Atmos / TrueHD
Идентификатор кодека : A_TRUEHD
Продолжительность : 1 ч. 34 м.
Вид битрейта : Переменный
Битрейт : 4603 Кбит/сек
Максимальный битрейт : 8133 Кбит/сек
Каналы : Object Based / 8 каналов
Расположение каналов : Object Based / Front: L C R, Side: L R, Back: L R, LFE
Частота : / 48,0 КГц
Частота кадров : 1200,000 кадров/сек (40 SPF)
Метод сжатия : Без потерь
Размер потока : 3,05 Гбайт (12%)
Заголовок : Peter.Rabbit.2018.2160p.BluRay.REMUX.HEVC.DTS-HD.MA.TrueHD.7.1.Atmos
Язык : English
Default : Да
Forced : Нет

Аудио #3
Идентификатор : 4
Формат : AC-3
Формат/Информация : Audio Coding 3
Идентификатор кодека : A_AC3
Продолжительность : 1 ч. 34 м.
Вид битрейта : Постоянный
Битрейт : 640 Кбит/сек
Каналы : 6 каналов
Расположение каналов : Front: L C R, Side: L R, LFE
Частота : 48,0 КГц
Частота кадров : 31,250 кадров/сек (1536 SPF)
Битовая глубина : 16 бит
Метод сжатия : С потерями
Размер потока : 434 Мбайт (2%)
Заголовок : Peter.Rabbit.2018.2160p.BluRay.REMUX.HEVC.DTS-HD.MA.TrueHD.7.1.Atmos
Язык : English
ServiceKind/String : Complete Main
Default : Нет
Forced : Нет

Текст #1
Идентификатор : 5
Формат : UTF-8
Идентификатор кодека : S_TEXT/UTF8
Идентификатор кодека/Информация : UTF-8 Plain Text
Продолжительность : 1 ч. 33 м.
Битрейт : 111 бит/сек
ElementCount : 1556
Размер потока : 76,4 Кбайт (0%)
Заголовок : Full
Язык : Russian
Default : Нет
Forced : Нет

Текст #2
Идентификатор : 6
Формат : UTF-8
Идентификатор кодека : S_TEXT/UTF8
Идентификатор кодека/Информация : UTF-8 Plain Text
Продолжительность : 1 ч. 33 м.
Битрейт : 71 бит/сек
ElementCount : 1726
Размер потока : 49,5 Кбайт (0%)
Заголовок : English-SRT
Язык : English
Default : Да
Forced : Нет

Текст #3
Идентификатор : 7
Формат : PGS
Режим смешивания : zlib
Идентификатор кодека : S_HDMV/PGS
Идентификатор кодека/Информация : Picture based subtitle format used on BDs/HD-DVDs
Продолжительность : 1 ч. 26 м.
Битрейт : 53,8 Кбит/сек
ElementCount : 3082
Размер потока : 33,1 Мбайт (0%)
Заголовок : English-PGS
Язык : English
Default : Нет
Forced : Нет

Текст #4
Идентификатор : 8
Формат : PGS
Режим смешивания : zlib
Идентификатор кодека : S_HDMV/PGS
Идентификатор кодека/Информация : Picture based subtitle format used on BDs/HD-DVDs
Продолжительность : 1 ч. 33 м.
Битрейт : 62,7 Кбит/сек
ElementCount : 3901
Размер потока : 42,1 Мбайт (0%)
Заголовок : English-SDH-PGS
Язык : English
Default : Нет
Forced : Нет

Текст #5
Идентификатор : 9
Формат : PGS
Режим смешивания : zlib
Идентификатор кодека : S_HDMV/PGS
Идентификатор кодека/Информация : Picture based subtitle format used on BDs/HD-DVDs
Продолжительность : 1 ч. 33 м.
Битрейт : 46,9 Кбит/сек
ElementCount : 3102
Размер потока : 31,5 Мбайт (0%)
Заголовок : Estonian-PGS
Язык : Estonian
Default : Нет
Forced : Нет

Текст #6
Идентификатор : 10
Формат : PGS
Режим смешивания : zlib
Идентификатор кодека : S_HDMV/PGS
Идентификатор кодека/Информация : Picture based subtitle format used on BDs/HD-DVDs
Продолжительность : 1 ч. 33 м.
Битрейт : 44,1 Кбит/сек
ElementCount : 2592
Размер потока : 29,6 Мбайт (0%)
Заголовок : French-PGS
Язык : French
Default : Нет
Forced : Нет

Текст #7
Идентификатор : 11
Формат : PGS
Режим смешивания : zlib
Идентификатор кодека : S_HDMV/PGS
Идентификатор кодека/Информация : Picture based subtitle format used on BDs/HD-DVDs
Продолжительность : 1 ч. 33 м.
Битрейт : 51,0 Кбит/сек
ElementCount : 3114
Размер потока : 34,2 Мбайт (0%)
Заголовок : Latvian-PGS
Язык : Latvian
Default : Нет
Forced : Нет

Текст #8
Идентификатор : 12
Формат : PGS
Режим смешивания : zlib
Идентификатор кодека : S_HDMV/PGS
Идентификатор кодека/Информация : Picture based subtitle format used on BDs/HD-DVDs
Продолжительность : 1 ч. 33 м.
Битрейт : 47,5 Кбит/сек
ElementCount : 3096
Размер потока : 31,9 Мбайт (0%)
Заголовок : Lithuanian-PGS
Язык : Lithuanian
Default : Нет
Forced : Нет

Текст #9
Идентификатор : 13
Формат : PGS
Режим смешивания : zlib
Идентификатор кодека : S_HDMV/PGS
Идентификатор кодека/Информация : Picture based subtitle format used on BDs/HD-DVDs
Продолжительность : 1 ч. 33 м.
Битрейт : 45,8 Кбит/сек
ElementCount : 2476
Размер потока : 30,8 Мбайт (0%)
Заголовок : Portuguese-PGS
Язык : Portuguese
Default : Нет
Forced : Нет

Текст #10
Идентификатор : 14
Формат : PGS
Режим смешивания : zlib
Идентификатор кодека : S_HDMV/PGS
Идентификатор кодека/Информация : Picture based subtitle format used on BDs/HD-DVDs
Продолжительность : 1 ч. 33 м.
Битрейт : 50,7 Кбит/сек
ElementCount : 3112
Размер потока : 34,1 Мбайт (0%)
Заголовок : Russian-PGS
Язык : Russian
Default : Нет
Forced : Нет

Текст #11
Идентификатор : 15
Формат : PGS
Режим смешивания : zlib
Идентификатор кодека : S_HDMV/PGS
Идентификатор кодека/Информация : Picture based subtitle format used on BDs/HD-DVDs
Продолжительность : 1 ч. 33 м.
Битрейт : 45,5 Кбит/сек
ElementCount : 2512
Размер потока : 30,5 Мбайт (0%)
Заголовок : Spanish-PGS
Язык : Spanish
Default : Нет
Forced : Нет

Текст #12
Идентификатор : 16
Формат : PGS
Режим смешивания : zlib
Идентификатор кодека : S_HDMV/PGS
Идентификатор кодека/Информация : Picture based subtitle format used on BDs/HD-DVDs
Продолжительность : 1 ч. 33 м.
Битрейт : 47,5 Кбит/сек
ElementCount : 3112
Размер потока : 31,9 Мбайт (0%)
Заголовок : Ukranian-PGS
Язык : Ukrainian
Default : Нет
Forced : Нет

Меню #1
00:00:00.000 : en:Chapter 1
00:04:04.786 : en:Chapter 2
00:08:26.297 : en:Chapter 3
00:15:11.702 : en:Chapter 4
00:21:00.634 : en:Chapter 5
00:25:43.583 : en:Chapter 6
00:30:50.265 : en:Chapter 7
00:38:00.861 : en:Chapter 8
00:44:37.341 : en:Chapter 9
00:50:07.671 : en:Chapter 10
00:56:21.294 : en:Chapter 11
01:01:07.580 : en:Chapter 12
01:07:02.560 : en:Chapter 13
01:10:30.809 : en:Chapter 14
01:14:35.137 : en:Chapter 15
01:21:51.990 : en:Chapter 16

Меню #2
00:00:00.000 : en:Chapter 01
00:04:04.619 : en:Chapter 02
00:08:26.297 : en:Chapter 03
00:15:11.493 : en:Chapter 04
00:21:00.634 : en:Chapter 05
00:25:43.500 : en:Chapter 06
00:30:50.265 : en:Chapter 07
00:38:00.861 : en:Chapter 08
00:44:36.965 : en:Chapter 09
00:50:07.504 : en:Chapter 10
00:56:21.044 : en:Chapter 11
01:01:07.246 : en:Chapter 12
01:07:02.560 : en:Chapter 13
01:10:30.601 : en:Chapter 14
01:14:35.137 : en:Chapter 15
01:21:51.615 : en:Chapter 16



Скачать Кролик Питер через торрент https://d.radikal.ru/d19/1805/0b/e2bdb153175e.png Скачать, смотреть онлайн Кролик Питер бесплантно в хорошем качестве Описание: Фильм о приключениях маленького и непоседливого крольчонка по имени Питер, который хочет пробраться в огород к грозному фермеру и ... 10 10 6
Info! Золотая раздача, скачанное не засчитывается.
Торрент: Зарегистрирован [2018-05-21 04:29] · скачан: 26 раз
Статус: √ проверено
Размер: 26.28 GB
Как cкачать? Как скачать Кролик Питер через торрент | UTorrent

% Раздел Тема Автор DL S | L
Фильмы 2021 [DVDrip, WEB-DLRip, HDrip] (DUB, MVO) [ 1.46 GB ] Кролик Питер 2 / Peter Rabbit 2: The Runaway | Лицензия | BDRip Twi7ter Скачать
12 | 0
Фильмы 2018 [DVDrip, WEB-DLRip, HDrip] (DUB, MVO) [ 2.17 GB ] Кролик Питер / Peter Rabbit | Лицензия | BDRip-AVC Enigma2010 Скачать
1 | 0
Фильмы 2018 [DVDrip, WEB-DLRip, HDrip] (DUB, MVO) [ 1.46 GB ] Кролик Питер / Peter Rabbit | Лицензия | BDRip Twi7ter Скачать
1 | 0

28-11-2019 20:33  


Отключить вcю реклaмy на сайте, в т.ч. и в плеере онлайн просмотра!

    Дорогой пользователь! Огромная просьба, поблагодарите релизера, оцените раздачу и оставьте свои комментарий, если Вы скачали Кролик Питер через торрент бесплатно!!
    Комментировать посты могут только пользователи прошедшие не сложную регистрацию
    Показать сообщения:    


    Кролик Питер через торрент
    Скачать бесплатно Кролик Питер
    Кролик Питер скачать торрент
    Кролик Питер смотреть онлайн
    Cкачать фильм Кролик Питер бесплатно
    Кролик Питер скачать торрент в хорошем качестве
    Кролик Питер смотреть онлайн бесплатно в хорошем качестве
    Вы не можете начинать темы
    Вы не можете отвечать на сообщения
    Вы не можете редактировать свои сообщения
    Вы не можете удалять свои сообщения
    Вы не можете голосовать в опросах
    Вы не можете прикреплять файлы к сообщениям
    Вы можете скачивать файлы
    Кролик Питер / Peter Rabbit [2018, мультфильм, фэнтези, комедия, приключения, семейный, UHD BDRip 2160p] Дубляж смотреть онлайн, скачать торрент picoco.icu