Достать ножи: Стеклянная луковица

MVO

Добыча

Дубляж

Уэнсдэй

1 сезон

Тор

Дубляж

13 клиническая

1 сезон

Жестокая ночь

MVO

Одни из нас

1 сезон

Deluxe

pack

Рекомендуем

30

Пиратка

ВАЖНО

ВАЖНО

Ghostwire

Пиратка

jed

RePack

nioh2

RePack

RDR2

RePack

NEED FOR SPEED™ PAYBACK

RePack

скачать торрент

Кинопоиск HD

Острые козырьки 6 сезон

6 сезон

FAR CRY 6

RePack

скачать торрент

Лицензия

скачать торрент

MVO

1

1 сезон

скачать торрент

1 сезон

скачать торрент

Лицензия

  

Фантастические твари и где они обитают / Fantastic Beasts and Where to Find Them (Дэвид Йейтс) [2016, фэнтези, приключения, семейный, UHD BDRip 2160p] Дубляж (rus, ukr)

Фантастические твари и где они обитают через торрент 5050.piratbit.fun

Размер: 31.88 GB | Добавлен: 4 года 8 мес. назад | Торрент скачан:125 раз
Смотреть онлайн | Скачать | Поддержите нас   

22-05-2018 16:26 Фантастические твари и где они обитают Скачать торрент  

Фантастические твари и где они обитают / Fantastic Beasts and Where to Find Them«Открой новую главу волшебного мира Дж.К.Роулинг»
Год выпуска: 2016
Страна: Великобритания, США
Жанр: фэнтези, приключения, семейный
Продолжительность: 02:12:53
Перевод: Дублированный
Субтитры: Русские, английские, украинские
Режиссер: Дэвид Йейтс
В ролях:

Эдди Редмэйн, Кэтрин Уотерстон, Дэн Фоглер, Элисон Судол, Колин Фаррелл, Кармен Эджого, Эзра Миллер, Саманта Мортон, Рон Перлман, Джон Войт, Джош Коудери (Henry Shaw Jr. / Senator Shaw), Ронан Рафтери (Langdon Shaw)
Описание:
Поиск и изучение необычайных волшебных существ приводят магозоолога Ньюта Саламандера в Нью-Йорк. Скорее всего, он отбыл бы на поезде дальше, если бы не «немаг» (так в Америке называют магглов) по имени Якоб, оставленный в неположенном месте магический чемодан и побег из него фантастических животных Ньюта.
Рейтинг:

MPAA: PG-13 - Детям до 13 лет просмотр не желателен
Качество: UHD BDRip 2160p
Формат: MKV
Видео: HEVC, HDR, 29300 Мбит/с, 3840x1600, 23.976 кадр/с
Аудио: AC3, 6 ch, 448 kbps - Русский
Аудио: AAC, 2 ch, 157 kbps - Украинский
Аудио: AC3, 6 ch, 448 kbps - Английский
Аудио: Dolby Atmos, 8 ch, 3951 kbps - Английский
Навигация по главам: Есть
General
Unique ID : 175653938123530227001839608054379237987 (0x8425B7CA23E55A8FA50542371118D263)
Complete name : E:\Fantastic.Beasts.and.Where.to.Find.Them.2016.2160p.UHD.BluRay.HDR.Atmos7.1.x265-ULTRAHDCLUB.mkv
Format : Matroska
Format version : Version 4 / Version 2
File size : 31.9 GiB
Duration : 2 h 12 min
Overall bit rate mode : Variable
Overall bit rate : 34.3 Mb/s
Movie name : Fantastic Beasts and Where to Find Them (2016) - Release for ULTRAHDCLUB
Encoded date : UTC 2017-04-04 14:54:29
Writing application : mkvmerge v9.9.0 ('Pick Up') 64bit
Writing library : libebml v1.3.4 + libmatroska v1.4.5
Cover : Yes
Attachments : cover.jpg

Video
ID : 1
Format : HEVC
Format/Info : High Efficiency Video Coding
Format profile : Main [email protected]@High
Codec ID : V_MPEGH/ISO/HEVC
Duration : 2 h 12 min
Bit rate : 29.3 Mb/s
Width : 3 840 pixels
Height : 1 600 pixels
Display aspect ratio : 2.40:1
Frame rate mode : Constant
Frame rate : 23.976 (24000/1001) FPS
Original frame rate : 23.976 (23976/1000) FPS
Color space : YUV
Chroma subsampling : 4:2:0 (Type 2)
Bit depth : 10 bits
Bits/(Pixel*Frame) : 0.199
Stream size : 27.2 GiB (85%)
Title : Fantastic Beasts and Where to Find Them (2016) - Release for ULTRAHDCLUB
Writing library : x265 2.3+23-97435a0870be:[Windows][GCC 6.3.0][64 bit] 10bit
Encoding settings : cpuid=1050111 / frame-threads=3 / numa-pools=12 / wpp / no-pmode / no-pme / no-psnr / no-ssim / log-level=2 / input-csp=1 / input-res=3840x1600 / interlace=0 / total-frames=0 / level-idc=0 / high-tier=1 / uhd-bd=0 / ref=1 / no-allow-non-conformance / repeat-headers / annexb / aud / hrd / info / hash=0 / no-temporal-layers / open-gop / min-keyint=23 / keyint=250 / bframes=3 / b-adapt=2 / b-pyramid / bframe-bias=0 / rc-lookahead=40 / lookahead-slices=0 / scenecut=40 / no-intra-refresh / ctu=32 / min-cu-size=8 / no-rect / no-amp / max-tu-size=32 / tu-inter-depth=1 / tu-intra-depth=1 / limit-tu=0 / rdoq-level=2 / dynamic-rd=0.00 / signhide / no-tskip / nr-intra=0 / nr-inter=0 / no-constrained-intra / strong-intra-smoothing / max-merge=2 / limit-refs=0 / no-limit-modes / me=2 / subme=7 / merange=57 / temporal-mvp / weightp / weightb / no-analyze-src-pics / no-deblock / no-sao / no-sao-non-deblock / rd=6 / no-early-skip / no-rskip / fast-intra / no-tskip-fast / no-cu-lossless / no-b-intra / rdpenalty=0 / psy-rd=3.00 / psy-rdoq=7.00 / no-rd-refine / analysis-mode=0 / no-lossless / cbqpoffs=0 / crqpoffs=0 / rc=crf / crf=21.0 / qcomp=0.80 / qpstep=1 / stats-write=0 / stats-read=0 / vbv-maxrate=100000 / vbv-bufsize=100000 / vbv-init=0.9 / crf-max=0.0 / crf-min=0.0 / ipratio=1.10 / pbratio=1.00 / aq-mode=3 / aq-strength=1.00 / no-cutree / zone-count=0 / no-strict-cbr / qg-size=32 / no-rc-grain / qpmax=51 / qpmin=0 / sar=0 / overscan=0 / videoformat=5 / range=0 / colorprim=9 / transfer=16 / colormatrix=9 / chromaloc=1 / chromaloc-top=2 / chromaloc-bottom=2 / display-window=0 / master-display=G(13250,34500)B(7500,3000)R(34000,16000)WP(15635,16450)L(40000000,50) / max-cll=3141,484 / min-luma=0 / max-luma=1023 / log2-max-poc-lsb=8 / vui-timing-info / vui-hrd-info / slices=1 / opt-qp-pps / opt-ref-list-length-pps / no-multi-pass-opt-rps / scenecut-bias=0.05 / no-opt-cu-delta-qp / no-aq-motion / hdr / no-hdr-opt / refine-level=5
Language : English
Default : Yes
Forced : No
Color range : Limited
Color primaries : BT.2020
Transfer characteristics : SMPTE ST 2084
Matrix coefficients : BT.2020 non-constant
Mastering display color primaries : R: x=0.680000 y=0.320000, G: x=0.265000 y=0.690000, B: x=0.150000 y=0.060000, White point: x=0.312700 y=0.329000
Mastering display luminance : min: 0.0050 cd/m2, max: 4000.0000 cd/m2
Maximum Content Light Level : 3141 cd/m2
Maximum Frame-Average Light Level : 484 cd/m2

Audio #1
ID : 2
Format : AC-3
Format/Info : Audio Coding 3
Mode extension : CM (complete main)
Format settings, Endianness : Big
Codec ID : A_AC3
Duration : 2 h 12 min
Bit rate mode : Constant
Bit rate : 448 kb/s
Channel(s) : 6 channels
Channel positions : Front: L C R, Side: L R, LFE
Sampling rate : 48.0 kHz
Frame rate : 31.250 FPS (1536 spf)
Bit depth : 16 bits
Compression mode : Lossy
Stream size : 426 MiB (1%)
Title : AC3 5.1 @ 448 kbps - Blu-ray CEE
Language : Russian
Default : Yes
Forced : No

Audio #2
ID : 3
Format : AAC
Format/Info : Advanced Audio Codec
Format profile : LC
Codec ID : A_AAC
Duration : 2 h 12 min
Bit rate : 157 kb/s
Channel(s) : 2 channels
Channel positions : Front: L R
Sampling rate : 48.0 kHz
Frame rate : 46.875 FPS (1024 spf)
Compression mode : Lossy
Stream size : 149 MiB (0%)
Title : AAC 2.0 @ 160 kbps - Дубляж, iTunes
Language : Ukrainian
Default : No
Forced : No

Audio #3
ID : 4
Format : Atmos / TrueHD
Codec ID : A_TRUEHD
Duration : 2 h 12 min
Bit rate mode : Variable
Bit rate : 3 951 kb/s
Maximum bit rate : 7 563 kb/s
Channel(s) : Object Based / 8 channels
Channel positions : Object Based / Front: L C R, Side: L R, Back: L R, LFE
Sampling rate : / 48.0 kHz
Frame rate : 1 200.000 FPS (40 spf)
Compression mode : Lossless
Stream size : 3.67 GiB (12%)
Title : Dolby Atmos TrueHD 7.1 @ 3951 kbps - Blu-ray CEE
Language : English
Default : No
Forced : No

Audio #4
ID : 5
Format : AC-3
Format/Info : Audio Coding 3
Mode extension : CM (complete main)
Format settings, Endianness : Big
Codec ID : A_AC3
Duration : 2 h 12 min
Bit rate mode : Constant
Bit rate : 448 kb/s
Channel(s) : 6 channels
Channel positions : Front: L C R, Side: L R, LFE
Sampling rate : 48.0 kHz
Frame rate : 31.250 FPS (1536 spf)
Bit depth : 16 bits
Compression mode : Lossy
Stream size : 426 MiB (1%)
Title : AC3 5.1 @ 448 kbps
Language : English
Default : No
Forced : No

Text #1
ID : 6
Format : UTF-8
Codec ID : S_TEXT/UTF8
Codec ID/Info : UTF-8 Plain Text
Duration : 2 h 11 min
Bit rate : 2 b/s
Count of elements : 41
Stream size : 2.46 KiB (0%)
Title : Forced, iTunes
Language : Russian
Default : Yes
Forced : Yes

Text #2
ID : 7
Format : UTF-8
Codec ID : S_TEXT/UTF8
Codec ID/Info : UTF-8 Plain Text
Duration : 2 h 12 min
Bit rate : 65 b/s
Count of elements : 1317
Stream size : 63.6 KiB (0%)
Title : iTunes
Language : Russian
Default : No
Forced : No

Text #3
ID : 8
Format : UTF-8
Codec ID : S_TEXT/UTF8
Codec ID/Info : UTF-8 Plain Text
Duration : 2 h 2 min
Bit rate : 2 b/s
Count of elements : 40
Stream size : 2.38 KiB (0%)
Title : Forced, iTunes
Language : Ukrainian
Default : No
Forced : No

Text #4
ID : 9
Format : UTF-8
Codec ID : S_TEXT/UTF8
Codec ID/Info : UTF-8 Plain Text
Duration : 2 h 10 min
Bit rate : 38 b/s
Count of elements : 1304
Stream size : 37.1 KiB (0%)
Language : English
Default : No
Forced : No

Text #5
ID : 10
Format : UTF-8
Codec ID : S_TEXT/UTF8
Codec ID/Info : UTF-8 Plain Text
Duration : 2 h 11 min
Bit rate : 44 b/s
Count of elements : 1599
Stream size : 43.3 KiB (0%)
Title : SDH
Language : English
Default : No
Forced : No

Text #6
ID : 11
Format : UTF-8
Codec ID : S_TEXT/UTF8
Codec ID/Info : UTF-8 Plain Text
Duration : 2 h 11 min
Bit rate : 59 b/s
Count of elements : 1599
Stream size : 57.4 KiB (0%)
Title : SDH-COLORED
Language : English
Default : No
Forced : No

Menu
00:00:00.000 : en:00:00:00.000
00:08:40.270 : en:00:08:40.270
00:18:55.718 : en:00:18:55.718
00:28:23.660 : en:00:28:23.660
00:38:34.187 : en:00:38:34.187
00:48:08.594 : en:00:48:08.594
00:58:19.246 : en:00:58:19.246
01:09:14.692 : en:01:09:14.692
01:17:26.392 : en:01:17:26.392
01:29:33.660 : en:01:29:33.660
01:38:02.085 : en:01:38:02.085
01:50:27.871 : en:01:50:27.871
01:59:04.471 : en:01:59:04.471
02:04:11.944 : en:02:04:11.944



Скачать Фантастические твари и где они обитают через торрент http://i99.fastpic.ru/big/2018/0126/8f/591052ed01c523434d857029023f638f.png Скачать, смотреть онлайн Фантастические твари и где они обитают бесплантно в хорошем качестве Описание: Поиск и изучение необычайных волшебных существ приводят магозоолога Ньюта Саламандера в Нью-Йорк. Скорее всего, он отбыл бы на ... 5 10 1
Торрент: Зарегистрирован [2018-05-22 16:26] · скачан: 125 раз
Статус: √ проверено
Размер: 31.88 GB
Как cкачать? Как скачать Фантастические твари и где они обитают через торрент | UTorrent

% Раздел Тема Автор DL S | L
Ultra HD (UHD: 2K, 4K, 8K) [ 57.5 GB ] Фантастические твари и где они обитают / Fantastic Beasts and Where to Find Them | Лицензия | 2160p sheker187 Скачать
2 | 0
Фильмы (HD 720p, 1080p) (48-60 fps) [ 4.31 GB ] Фантастические твари и где они обитают / Fantastic Beasts and Where to Find Them | Лицензия | 720p 60 fps от еnvy / NNNB еnvy Скачать
4 | 0
Фильмы [HD 720p, 1080p] (Хороший звук DUB, MVO) [ 7.72 GB ] Фантастические твари и где они обитают / Fantastic Beasts and Where to Find Them | Лицензия | 1080p от еnvy / NNNB еnvy Скачать
39 | 3
Фильмы [HD 720p, 1080p] (Хороший звук DUB, MVO) [ 5.58 GB ] Фантастические твари и где они обитают / Fantastic Beasts and Where to Find Them | Дубляж | 1080p, [HDR Мичман37 Скачать
2 | 0
Ultra HD (UHD: 2K, 4K, 8K) [ 59.31 GB ] Фантастические твари и где они обитают / Fantastic Beasts and Where to Find Them | Лицензия | 2160p sheker187 Скачать
1 | 0
Фильмы (Blu-ray, BD-Remux, HDDVD) [ 35.68 GB ] Фантастические твари и где они обитают / Fantastic Beasts and Where to Find Them | Лицензия | BD Remux 1080p bober100 Скачать
1 | 1
Фильмы с авторской озвучкой [ 2.19 GB ] Фантастические твари и где они обитают / Fantastic Beasts and Where to Find Them | AVO | BDRip-AVC killermax2013 Скачать
1 | 0

28-11-2019 20:33  


Отключить вcю реклaмy на сайте, в т.ч. и в плеере онлайн просмотра!

    Дорогой пользователь! Огромная просьба, поблагодарите релизера, оцените раздачу и оставьте свои комментарий, если Вы скачали Фантастические твари и где они обитают через торрент бесплатно!!
    Комментировать посты могут только пользователи прошедшие не сложную регистрацию
    Показать сообщения:    


    Фантастические твари и где они обитают через торрент
    Скачать бесплатно Фантастические твари и где они обитают
    Фантастические твари и где они обитают скачать торрент
    Фантастические твари и где они обитают смотреть онлайн
    Cкачать фильм Фантастические твари и где они обитают бесплатно
    Фантастические твари и где они обитают скачать торрент в хорошем качестве
    Фантастические твари и где они обитают смотреть онлайн бесплатно в хорошем качестве
    Вы не можете начинать темы
    Вы не можете отвечать на сообщения
    Вы не можете редактировать свои сообщения
    Вы не можете удалять свои сообщения
    Вы не можете голосовать в опросах
    Вы не можете прикреплять файлы к сообщениям
    Вы можете скачивать файлы
    Фантастические твари и где они обитают / Fantastic Beasts and Where to Find Them [2016, фэнтези, приключения, семейный, UHD BDRip 2160p] Дубляж смотреть онлайн, скачать торрент picoco.icu