Достать ножи: Стеклянная луковица

MVO

Добыча

Дубляж

Уэнсдэй

1 сезон

Тор

Дубляж

13 клиническая

1 сезон

Жестокая ночь

MVO

Одни из нас

1 сезон

Deluxe

pack

Рекомендуем

30

Пиратка

ВАЖНО

ВАЖНО

Ghostwire

Пиратка

jed

RePack

nioh2

RePack

RDR2

RePack

NEED FOR SPEED™ PAYBACK

RePack

скачать торрент

Кинопоиск HD

Острые козырьки 6 сезон

6 сезон

FAR CRY 6

RePack

скачать торрент

Лицензия

скачать торрент

MVO

1

1 сезон

скачать торрент

1 сезон

скачать торрент

Лицензия

  

Аннигиляция / Annihilation (Алекс Гарленд) [2018, Фантастика, фэнтези, ужасы, триллер, драма, детектив, приключения, UHD BDRemux 2160p] 3xMVO + 2xAVO

Аннигиляция через торрент 5050.piratbit.fun

Размер: 56.74 GB | Добавлен: 4 года 4 мес. назад | Торрент скачан:90 раз
Смотреть онлайн | Скачать | Поддержите нас   

22-05-2018 17:03 Аннигиляция Скачать торрент  

Аннигиляция / Annihilation

Год выпуска: 2017
Страна: Великобритания, США
Жанр: Фантастика, фэнтези, ужасы, триллер, драма, детектив, приключения
Продолжительность: 01:55:00
Перевод: Профессиональный многоголосый, авторский
Субтитры: Russian (Forced, full), Ukrainian (full), English (full, SDH)
Режиссер: Алекс Гарленд
В ролях:

Натали Портман (Lena), Бенедикт Вонг (Lomax), Соноя Мидзуно (Katie (Med Student)), Дэвид Гяси (Daniel), Оскар Айзек (Kane), Джон Шваб (Paramedic), Дженнифер Джейсон Ли (Dr. Ventress), Джина Родригез (Anya Thorensen), Тува Новотны (Cass Sheppard), Тесса Томпсон (Josie Radek), Сэмми Хейман (Mayer), Джош Дэнфорд (Shelley)
Описание:
Профессор биологии Лина уже год страдает от потери мужа-военного. Кейн отправился на очередное секретное задание, но так и не вернулся — жив ли, погиб — женщина не знает, пока однажды дезориентированный и слегка бледный супруг внезапно не появляется на пороге их спальни. Радость длится недолго — у мужчины начинаются судороги и множественные кровотечения, а по дороге в больницу машину скорой помощи тормозят военные. Лина приходит в себя на секретной базе рядом с той самой загадочной зоной, куда уже отправлялись многочисленные экспедиции, но вернулся, оказывается, только один человек — её Кейн.
Рейтинг:

Качество: UHD BDRemux 2160p
Формат: MKV
Видео: HEVC, HDR, 44956 Kбит/с, 3840x2160, 23.976 Кадр/с
Аудио #1: DTS MA, 48.0 kHz, 8 ch, 4 612 kb/s (Russian) | MVO, Jaskier |
Аудио #2: DTS MA, 48.0 kHz, 8 ch, 4 643 kb/s (Russian) | MVO, NewStudio |
Аудио #3: DTS MA, 48.0 kHz, 8 ch, 3 840 kb/s (Russian) | AVO, Яроцкий |
Аудио #4: AC-3, 48.0 kHz, 6 ch, 640 kb/s, CBR (Russian) | MVO, Jaskier |
Аудио #5: AC-3, 48.0 kHz, 6 ch, 640 kb/s, CBR (Russian) | MVO, NewStudio |
Аудио #6: AC-3, 48.0 kHz, 2 ch, 192 kb/s, CBR (Russian) | MVO, HDRezka |
Аудио #7: AC-3, 48.0 kHz, 6 ch, 640 kb/s, CBR (Russian) | AVO, Яроцкий |
Аудио #8: AC-3, 48.0 kHz, 6 ch, 448 kb/s, CBR (Russian) | AVO, Назаров |
Аудио #9: DTS MAe, 48.0 kHz, 8 ch, 4 607 kb/s (Ukrainian) | MVO, НеЗупиняйПродакшн |
Аудио #10: AC-3, 48.0 kHz, 6 ch, 640 kb/s, CBR (Ukrainian) | MVO, НеЗупиняйПродакшн |
Аудио #11: TrueHD TrueHD+Atmos / TrueHD, / 48.0 kHz, Object Based / 8 ch, 4 062 kb/s, VBR (English)
Аудио #12: AC-3, 48.0 kHz, 6 ch, 640 kb/s, CBR (English)
Навигация по главам: есть
Общее
Уникальный идентификатор : 259855748468445411796947907854392901018 (0xC37E658F6B5228A6DF3E84E6BFB43D9A)
Полное имя : Annihilation.2018.UHD.BDRemux.2160p.4K.UltraHD.HEVC.HDR.IVA(5xRUS.UKR.ENG).ExKinoRay.mkv
Формат : Matroska
Версия формата : Version 4
Размер файла : 56,7 Гбайт
Продолжительность : 1 ч. 55 м.
Режим общего битрейта : Переменный
Общий поток : 70,4 Мбит/сек
Название фильма : Аннигиляция / Annihilation ( 2018 ) UHD BDRemux | HDR, 4K | IVA(5xRUS.UKR.ENG) | ExKinoRay
Дата кодирования : UTC 2018-09-28 22:18:52
Программа кодирования : mkvmerge v26.0.0 ('In The Game') 64-bit
Библиотека кодирования : libebml v1.3.6 + libmatroska v1.4.9
Обложка : Yes
Attachments : cover

Видео
Идентификатор : 1
Формат : HEVC
Формат/Информация : High Efficiency Video Coding
Коммерческое название : HDR10
Профиль формата : Main [email protected]@High
Идентификатор кодека : V_MPEGH/ISO/HEVC
Продолжительность : 1 ч. 55 м.
Битрейт : 44,9 Мбит/сек
Ширина : 3840 пикселей
Высота : 2160 пикселей
Соотношение сторон : 16:9
Режим частоты кадров : Постоянный
Частота кадров : 23,976 (24000/1001) кадра/сек
Цветовое пространство : YUV
Субдискретизация насыщенности : 4:2:0 (Type 2)
Битовая глубина : 10 бит
Бит/(Пиксели*Кадры) : 0.226
Размер потока : 36,1 Гбайт (64%)
Заголовок : Annihilation.2018.UHD.BDRemux.2160p.4K.UltraHD.HEVC.HDR
Язык : English
Default : Да
Forced : Нет
Цветовой диапазон : Limited
Основные цвета : BT.2020
Характеристики трансфера : PQ
Коэффициенты матрицы : BT.2020 non-constant
MasteringDisplay_ColorPrimaries : Display P3
MasteringDisplay_Luminance : min: 0.0001 cd/m2, max: 1000 cd/m2

Аудио #1
Идентификатор : 2
Формат : DTS XLL
Формат/Информация : Digital Theater Systems
Коммерческое название : DTS-HD Master Audio
Идентификатор кодека : A_DTS
Продолжительность : 1 ч. 55 м.
Вид битрейта : Переменный
Битрейт : 4612 Кбит/сек
Каналы : 8 каналов
Channel layout : C L R LFE Lb Rb Lss Rss
Частота : 48,0 КГц
Частота кадров : 93,750 кадра/сек (512 SPF)
Битовая глубина : 24 бит
Метод сжатия : Без потерь
Размер потока : 3,70 Гбайт (7%)
Заголовок : | MVO, Jaskier |
Язык : Russian
Default : Да
Forced : Нет

Аудио #2
Идентификатор : 3
Формат : DTS XLL
Формат/Информация : Digital Theater Systems
Коммерческое название : DTS-HD Master Audio
Идентификатор кодека : A_DTS
Продолжительность : 1 ч. 55 м.
Вид битрейта : Переменный
Битрейт : 4643 Кбит/сек
Каналы : 8 каналов
Channel layout : C L R LFE Lb Rb Lss Rss
Частота : 48,0 КГц
Частота кадров : 93,750 кадра/сек (512 SPF)
Битовая глубина : 24 бит
Метод сжатия : Без потерь
Размер потока : 3,73 Гбайт (7%)
Заголовок : | MVO, NewStudio |
Язык : Russian
Default : Нет
Forced : Нет

Аудио #3
Идентификатор : 4
Формат : DTS XLL
Формат/Информация : Digital Theater Systems
Коммерческое название : DTS-HD Master Audio
Идентификатор кодека : A_DTS
Продолжительность : 1 ч. 55 м.
Вид битрейта : Переменный
Битрейт : 3868 Кбит/сек
Каналы : 8 каналов
Channel layout : C L R LFE Lb Rb Lss Rss
Частота : 48,0 КГц
Частота кадров : 93,750 кадра/сек (512 SPF)
Битовая глубина : 24 бит
Метод сжатия : Без потерь
Размер потока : 3,11 Гбайт (5%)
Заголовок : | AVO, Яроцкий|
Язык : Russian
Default : Нет
Forced : Нет

Аудио #4
Идентификатор : 5
Формат : AC-3
Формат/Информация : Audio Coding 3
Коммерческое название : Dolby Digital
Идентификатор кодека : A_AC3
Продолжительность : 1 ч. 55 м.
Вид битрейта : Постоянный
Битрейт : 640 Кбит/сек
Каналы : 6 каналов
Channel layout : L R C LFE Ls Rs
Частота : 48,0 КГц
Частота кадров : 31,250 кадров/сек (1536 SPF)
Битовая глубина : 16 бит
Метод сжатия : С потерями
Размер потока : 526 Мбайт (1%)
Заголовок : | MVO, Jaskier |
Язык : Russian
ServiceKind : Complete Main
Default : Нет
Forced : Нет

Аудио #5
Идентификатор : 6
Формат : AC-3
Формат/Информация : Audio Coding 3
Коммерческое название : Dolby Digital
Идентификатор кодека : A_AC3
Продолжительность : 1 ч. 55 м.
Вид битрейта : Постоянный
Битрейт : 640 Кбит/сек
Каналы : 6 каналов
Channel layout : L R C LFE Ls Rs
Частота : 48,0 КГц
Частота кадров : 31,250 кадров/сек (1536 SPF)
Битовая глубина : 16 бит
Метод сжатия : С потерями
Размер потока : 526 Мбайт (1%)
Заголовок : | MVO, NewStudio |
Язык : Russian
ServiceKin : Complete Main
Default : Нет
Forced : Нет

Аудио #6
Идентификатор : 7
Формат : AC-3
Формат/Информация : Audio Coding 3
Коммерческое название : Dolby Digital
Идентификатор кодека : A_AC3
Продолжительность : 1 ч. 55 м.
Вид битрейта : Постоянный
Битрейт : 192 Кбит/сек
Каналы : 2 канала
Channel layout : L R
Частота : 48,0 КГц
Частота кадров : 31,250 кадров/сек (1536 SPF)
Битовая глубина : 16 бит
Метод сжатия : С потерями
Размер потока : 159 Мбайт (0%)
Заголовок : | MVO, HDRezka |
Язык : Russian
ServiceKind : Complete Main
Default : Нет
Forced : Нет

Аудио #7
Идентификатор : 8
Формат : AC-3
Формат/Информация : Audio Coding 3
Коммерческое название : Dolby Digital
Идентификатор кодека : A_AC3
Продолжительность : 1 ч. 55 м.
Вид битрейта : Постоянный
Битрейт : 640 Кбит/сек
Каналы : 6 каналов
Channel layout : L R C LFE Ls Rs
Частота : 48,0 КГц
Частота кадров : 31,250 кадров/сек (1536 SPF)
Битовая глубина : 16 бит
Метод сжатия : С потерями
Размер потока : 526 Мбайт (1%)
Заголовок : | AVO, Яроцкий|
Язык : Russian
ServiceKind : Complete Main
Default : Нет
Forced : Нет

Аудио #8
Идентификатор : 9
Формат : AC-3
Формат/Информация : Audio Coding 3
Коммерческое название : Dolby Digital
Идентификатор кодека : A_AC3
Продолжительность : 1 ч. 54 м.
Вид битрейта : Постоянный
Битрейт : 448 Кбит/сек
Каналы : 6 каналов
Channel layout : L R C LFE Ls Rs
Частота : 48,0 КГц
Частота кадров : 31,250 кадров/сек (1536 SPF)
Битовая глубина : 16 бит
Метод сжатия : С потерями
Размер потока : 368 Мбайт (1%)
Заголовок : | AVO, Назаров |
Язык : Russian
ServiceKind : Complete Main
Default : Нет
Forced : Нет

Аудио #9
Идентификатор : 10
Формат : DTS XLL
Формат/Информация : Digital Theater Systems
Коммерческое название : DTS-HD Master Audio
Идентификатор кодека : A_DTS
Продолжительность : 1 ч. 55 м.
Вид битрейта : Переменный
Битрейт : 4607 Кбит/сек
Каналы : 8 каналов
Channel layout : C L R LFE Lb Rb Lss Rss
Частота : 48,0 КГц
Частота кадров : 93,750 кадра/сек (512 SPF)
Битовая глубина : 24 бит
Метод сжатия : Без потерь
Размер потока : 3,70 Гбайт (7%)
Заголовок : | MVO, НеЗупиняйПродакшн |
Язык : Ukrainian
Default : Нет
Forced : Нет

Аудио #10
Идентификатор : 11
Формат : AC-3
Формат/Информация : Audio Coding 3
Коммерческое название : Dolby Digital
Идентификатор кодека : A_AC3
Продолжительность : 1 ч. 55 м.
Вид битрейта : Постоянный
Битрейт : 640 Кбит/сек
Каналы : 6 каналов
Channel layout : L R C LFE Ls Rs
Частота : 48,0 КГц
Частота кадров : 31,250 кадров/сек (1536 SPF)
Битовая глубина : 16 бит
Метод сжатия : С потерями
Размер потока : 526 Мбайт (1%)
Заголовок : | MVO, НеЗупиняйПродакшн |
Язык : Ukrainian
ServiceKind : Complete Main
Default : Нет
Forced : Нет

Аудио #11
Идентификатор : 12
Формат : MLP FBA 16-ch
Формат/Информация : Meridian Lossless Packing FBA with 16-channel presentation
Коммерческое название : Dolby TrueHD with Dolby Atmos
Идентификатор кодека : A_TRUEHD
Продолжительность : 1 ч. 55 м.
Вид битрейта : Переменный
Битрейт : 4062 Кбит/сек
Максимальный битрейт : 7278 Кбит/сек
Каналы : 8 каналов
Channel layout : L R C LFE Ls Rs Lb Rb
Частота : 48,0 КГц
Частота кадров : 1200,000 кадров/сек (40 SPF)
Метод сжатия : Без потерь
Размер потока : 3,26 Гбайт (6%)
Заголовок : | Original |
Язык : English
Default : Нет
Forced : Нет
Number of dynamic objects : 11
Bed channel count : 1 канал
Bed channel configuration : LFE

Аудио #12
Идентификатор : 13
Формат : AC-3
Формат/Информация : Audio Coding 3
Коммерческое название : Dolby Digital
Идентификатор кодека : A_AC3
Продолжительность : 1 ч. 55 м.
Вид битрейта : Постоянный
Битрейт : 640 Кбит/сек
Каналы : 6 каналов
Channel layout : L R C LFE Ls Rs
Частота : 48,0 КГц
Частота кадров : 31,250 кадров/сек (1536 SPF)
Битовая глубина : 16 бит
Метод сжатия : С потерями
Размер потока : 526 Мбайт (1%)
Заголовок : | Original, AC3 Core |
Язык : English
ServiceKind : Complete Main
Default : Нет
Forced : Нет

Текст #1
Идентификатор : 14
Формат : UTF-8
Идентификатор кодека : S_TEXT/UTF8
Идентификатор кодека/Информация : UTF-8 Plain Text
Продолжительность : 1 ч. 46 м.
Битрейт : 59 бит/сек
ElementCount : 915
Размер потока : 46,7 Кбайт (0%)
Заголовок : Full [Focs]
Язык : Russian
Default : Нет
Forced : Нет

Текст #2
Идентификатор : 15
Формат : UTF-8
Идентификатор кодека : S_TEXT/UTF8
Идентификатор кодека/Информация : UTF-8 Plain Text
Продолжительность : 1 ч. 46 м.
Битрейт : 55 бит/сек
ElementCount : 920
Размер потока : 43,3 Кбайт (0%)
Заголовок : Full v.2
Язык : Russian
Default : Нет
Forced : Нет

Текст #3
Идентификатор : 16
Формат : UTF-8
Идентификатор кодека : S_TEXT/UTF8
Идентификатор кодека/Информация : UTF-8 Plain Text
Продолжительность : 1 ч. 47 м.
Битрейт : 56 бит/сек
ElementCount : 926
Размер потока : 44,2 Кбайт (0%)
Заголовок : Full by ivadm
Язык : Ukrainian
Default : Нет
Forced : Нет

Текст #4
Идентификатор : 17
Формат : UTF-8
Идентификатор кодека : S_TEXT/UTF8
Идентификатор кодека/Информация : UTF-8 Plain Text
Продолжительность : 1 ч. 46 м.
Битрейт : 34 бит/сек
ElementCount : 940
Размер потока : 27,1 Кбайт (0%)
Заголовок : Full
Язык : English
Default : Нет
Forced : Нет

Текст #5
Идентификатор : 18
Формат : UTF-8
Идентификатор кодека : S_TEXT/UTF8
Идентификатор кодека/Информация : UTF-8 Plain Text
Продолжительность : 1 ч. 47 м.
Битрейт : 40 бит/сек
ElementCount : 1098
Размер потока : 32,2 Кбайт (0%)
Заголовок : SDH
Язык : English
Default : Нет
Forced : Нет

Меню
00:00:00.000 : en:Chapter 1
00:05:09.309 : en:Chapter 2
00:11:39.157 : en:Chapter 3
00:17:06.692 : en:Chapter 4
00:24:08.656 : en:Chapter 5
00:28:59.446 : en:Chapter 6
00:37:24.242 : en:Chapter 7
00:41:59.517 : en:Chapter 8
00:49:11.448 : en:Chapter 9
00:56:06.405 : en:Chapter 10
01:03:22.298 : en:Chapter 11
01:10:25.012 : en:Chapter 12
01:17:21.929 : en:Chapter 13
01:22:20.477 : en:Chapter 14
01:30:26.296 : en:Chapter 15
01:38:48.589 : en:Chapter 16
01:43:58.357 : en:Chapter 17
01:48:14.279 : en:Chapter 18



Скачать Аннигиляция через торрент https://a.radikal.ru/a30/1805/2e/500bd62ae6b1.jpg Скачать, смотреть онлайн Аннигиляция бесплантно в хорошем качестве Описание: Профессор биологии Лина уже год страдает от потери мужа-военного. Кейн отправился на очередное секретное задание, но так и не ... 7.8 10 4
Info! Золотая раздача, скачанное не засчитывается.
Торрент: Зарегистрирован [2018-09-29 02:49] · скачан: 90 раз
Статус: √ проверено
Размер: 56.74 GB
Как cкачать? Как скачать Аннигиляция через торрент | UTorrent

% Раздел Тема Автор DL S | L
Ultra HD (UHD: 2K, 4K, 8K) [ 46.73 GB ] Аннигиляция / Annihilation | DUB + 2xMVO + 2xAVO | 2160p sheker187 Скачать
1 | 0
Ultra HD (UHD: 2K, 4K, 8K) [ 63.86 GB ] Аннигиляция / Annihilation | DUB + 2xMVO + 2xAVO | 2160p sheker187 Скачать
1 | 0
Фильмы (Blu-ray, BD-Remux, HDDVD) [ 39.48 GB ] Аннигиляция / Annihilation | iTunes | 1080p sheker187 Скачать
1 | 0
Фильмы (Blu-ray, BD-Remux, HDDVD) [ 43.03 GB ] Аннигиляция / Annihilation | iTunes | 1080p sheker187 Скачать
1 | 0
Ultra HD (UHD: 2K, 4K, 8K) [ 54.83 GB ] Аннигиляция / Annihilation | iTunes | 2160p sheker187 Скачать
1 | 0



Последний раз редактировалось: sheker187 (2018-09-29 02:49), всего редактировалось 5 раз(а)

28-11-2019 20:33  


Отключить вcю реклaмy на сайте, в т.ч. и в плеере онлайн просмотра!

22-05-2018 17:44 Аннигиляция Скачать торрент  

по-объёмней 4 К не предвидится ? гиг 50 или более



30-05-2018 17:01 Аннигиляция Скачать торрент  

Замена Web-rip --> Blu-Ray Remux (2160p)



08-06-2018 14:59 Аннигиляция Скачать торрент  

Когда уже выйдет дублированный релиз, кто знает?



28-09-2018 21:58 Аннигиляция Скачать торрент  

Вы для кого 4К выкладываете ? Даже в Москве почти ни у кого нет телевизоров круче 2К !!!!



29-09-2018 02:55 Аннигиляция Скачать торрент  

gav34 писал(а):

Даже в Москве почти ни у кого нет телевизоров круче 2К !!!!




17-10-2018 13:25 Аннигиляция Скачать торрент  

gav34 писал(а):

Вы для кого 4К выкладываете ? Даже в Москве почти ни у кого нет телевизоров круче 2К !!!!

Гониш что ль??? у меня года 2уже



18-10-2018 18:08 Аннигиляция Скачать торрент  

я в деревне живу уже год как 4к смотрю



    Дорогой пользователь! Огромная просьба, поблагодарите релизера, оцените раздачу и оставьте свои комментарий, если Вы скачали Аннигиляция через торрент бесплатно!!
    Комментировать посты могут только пользователи прошедшие не сложную регистрацию
    Показать сообщения:    


    Аннигиляция через торрент
    Скачать бесплатно Аннигиляция
    Аннигиляция скачать торрент
    Аннигиляция смотреть онлайн
    Cкачать фильм Аннигиляция бесплатно
    Аннигиляция скачать торрент в хорошем качестве
    Аннигиляция смотреть онлайн бесплатно в хорошем качестве
    Вы не можете начинать темы
    Вы не можете отвечать на сообщения
    Вы не можете редактировать свои сообщения
    Вы не можете удалять свои сообщения
    Вы не можете голосовать в опросах
    Вы не можете прикреплять файлы к сообщениям
    Вы можете скачивать файлы
    Аннигиляция / Annihilation [2018, Фантастика, фэнтези, ужасы, триллер, драма, детектив, приключения, UHD BDRemux 2160p] 3xMVO + 2xAVO смотреть онлайн, скачать торрент picoco.icu