Достать ножи: Стеклянная луковица

MVO

Добыча

Дубляж

Уэнсдэй

1 сезон

Тор

Дубляж

13 клиническая

1 сезон

Жестокая ночь

MVO

Одни из нас

1 сезон

Deluxe

pack

Рекомендуем

30

Пиратка

ВАЖНО

ВАЖНО

Ghostwire

Пиратка

jed

RePack

nioh2

RePack

RDR2

RePack

NEED FOR SPEED™ PAYBACK

RePack

скачать торрент

Кинопоиск HD

Острые козырьки 6 сезон

6 сезон

FAR CRY 6

RePack

скачать торрент

Лицензия

скачать торрент

MVO

1

1 сезон

скачать торрент

1 сезон

скачать торрент

Лицензия

  

Мир Юрского периода / Jurassic World (Колин Треворроу) [2015, Фантастика, приключения, UHD BDRemux 2160p] AVO [А.Гаврилов] +Дубляж (rus, ukr) [Лицензия]

Мир Юрского периода через торрент 5050.piratbit.fun

Размер: 53.07 GB | Добавлен: 4 года 8 мес. назад | Торрент скачан:87 раз
Смотреть онлайн | Скачать | Поддержите нас   

22-05-2018 21:02 Мир Юрского периода Скачать торрент  

Мир Юрского периода / Jurassic World
«Я знаю твои секреты»
Год выпуска: 2015
Страна: США
Жанр: Фантастика, приключения
Продолжительность: 02:04:21
Перевод:

#1. Дублированный | Лицензия
#2. Авторский | А. Гаврилов

Субтитры: Russian (Forced, full), Ukrainian (full), English (full, 3xSDH)

Режиссер: Колин Треворроу

rating

В ролях:

Крис Пратт (Owen), Брайс Даллас Ховард (Claire), Ник Дж. Робинсон (Zach), Тай Симпкинс (Gray), Винсент Д’Онофрио (Hoskins), Ирфан Кхан (Masrani), Омар Си (Barry), Б.Д. Вонг (Dr. Henry Wu), Джейк Джонсон (Lowery), Джуди Грир (Karen), Кэти МакГрат (Zara), Лорен Лапкус (Vivian)
Описание:

Действие происходит через 22 года после событий «Парка Юрского периода». На острове Нублар функционирует парк, задуманный Джоном Хэммондом. Но к этому времени посещаемость уже начинает падать, и компания — владелец парка решает открыть новый аттракцион, чтобы привлечь посетителей. И вот снова тысячи людей спешат увидеть Мир Юрского периода, но безопасное на первый взгляд развлечение может обернуться угрозой для всего человечества...

Качество: UHD BDRemux 2160p
Формат: MKV

Видео: HEVC, 54653 Кбит/с, 3840x2160, 23.976 Кадр/с
Аудио#1: DTS, 48.0 kHz, 6 ch, 768 kb/s, CBR (Russian) | Дублированный, 4К |
Аудио#2: AC-3, 48.0 kHz, 6 ch, 448 kb/s, CBR (Russian) | Дублированный |
Аудио#3: AC-3, 48.0 kHz, 6 ch, 640 kb/s, CBR (Russian) | AVO, А. Гаврилов |
Аудио#4: DTS, 48.0 kHz, 6 ch, 1 509 kb/s, CBR (Ukrainian) | Дублированный, Le Doyen |
Аудио#5: DTS:X/MA, 48.0 kHz 8 ch, 3072 kb/s VBR (English) |
скриншот  скриншот  скриншот  скриншот  скриншот  скриншот  

Общее
Уникальный идентификатор : 83552825750946551065393559159745101105 (0x3EDBB05C17345A46D8E62CAD07793D31)
Полное имя : Jurassic.World.2015.Lic.BDRemux.2160p.4K.UltraHD.HEVC.HDR.IVA(2xRUS.UKR.ENG).ExKinoRay.mkv
Формат : Matroska
Версия формата : Version 4 / Version 2
Размер файла : 53,1 Гбайт
Продолжительность : 2 ч. 4 м.
Общий поток : 61,1 Мбит/сек
Название фильма : Мир Юрского периода / Jurassic World ( 2015 ) UHD BDRemux | HDR, 4K | IVA(2xRUS.UKR.ENG) | ExKinoRay
Дата кодирования : UTC 2018-05-22 17:11:05
Программа кодирования : mkvmerge v23.0.0 ('The Bride Said No') 64-bit
Библиотека кодирования : libebml v1.3.6 + libmatroska v1.4.9
Обложка : Yes
Attachments : cover

Видео
Идентификатор : 1
Формат : HEVC
Формат/Информация : High Efficiency Video Coding
Коммерческое название : HDR10
Профиль формата : Main [email protected]@High
Идентификатор кодека : V_MPEGH/ISO/HEVC
Продолжительность : 2 ч. 4 м.
Битрейт : 54,7 Мбит/сек
Ширина : 3840 пикселей
Высота : 2160 пикселей
Соотношение сторон : 16:9
Режим частоты кадров : Постоянный
Частота кадров : 23,976 (24000/1001) кадра/сек
Цветовое пространство : YUV
Субдискретизация насыщенности : 4:2:0 (Type 2)
Битовая глубина : 10 бит
Бит/(Пиксели*Кадры) : 0.275
Размер потока : 47,5 Гбайт (89%)
Язык : English
Default : Да
Forced : Нет
Цветовой диапазон : Limited
Основные цвета : BT.2020
Характеристики трансфера : PQ
Коэффициенты матрицы : BT.2020 non-constant
MasteringDisplay_Luminance : min: 0.0050 cd/m2, max: 1000 cd/m2
MaxCLL : 1000 cd/m2
MaxFALL : 427 cd/m2

Аудио #1
Идентификатор : 2
Формат : DTS
Формат/Информация : Digital Theater Systems
Идентификатор кодека : A_DTS
Продолжительность : 2 ч. 4 м.
Вид битрейта : Постоянный
Битрейт : 768 Кбит/сек
Каналы : 6 каналов
Расположение каналов : Front: L C R, Side: L R, LFE
Частота : 48,0 КГц
Частота кадров : 93,750 кадра/сек (512 SPF)
Битовая глубина : 24 бит
Метод сжатия : С потерями
Размер потока : 683 Мбайт (1%)
Заголовок : | Дублированный, 4К |
Язык : Russian
Default : Да
Forced : Нет

Аудио #2
Идентификатор : 3
Формат : AC-3
Формат/Информация : Audio Coding 3
Идентификатор кодека : A_AC3
Продолжительность : 2 ч. 4 м.
Вид битрейта : Постоянный
Битрейт : 448 Кбит/сек
Каналы : 6 каналов
Расположение каналов : Front: L C R, Side: L R, LFE
Частота : 48,0 КГц
Частота кадров : 31,250 кадров/сек (1536 SPF)
Битовая глубина : 16 бит
Метод сжатия : С потерями
Размер потока : 398 Мбайт (1%)
Заголовок : | Дублированный |
Язык : Russian
ServiceKind : Complete Main
Default : Нет
Forced : Нет

Аудио #3
Идентификатор : 4
Формат : AC-3
Формат/Информация : Audio Coding 3
Идентификатор кодека : A_AC3
Продолжительность : 2 ч. 4 м.
Вид битрейта : Постоянный
Битрейт : 640 Кбит/сек
Каналы : 6 каналов
Расположение каналов : Front: L C R, Side: L R, LFE
Частота : 48,0 КГц
Частота кадров : 31,250 кадров/сек (1536 SPF)
Битовая глубина : 16 бит
Метод сжатия : С потерями
Размер потока : 569 Мбайт (1%)
Заголовок : | AVO, А. Гаврилов |
Язык : Russian
ServiceKind : Complete Main
Default : Нет
Forced : Нет

Аудио #4
Идентификатор : 5
Формат : DTS
Формат/Информация : Digital Theater Systems
Идентификатор кодека : A_DTS
Продолжительность : 2 ч. 4 м.
Вид битрейта : Постоянный
Битрейт : 1509 Кбит/сек
Каналы : 6 каналов
Расположение каналов : Front: L C R, Side: L R, LFE
Частота : 48,0 КГц
Частота кадров : 93,750 кадра/сек (512 SPF)
Битовая глубина : 24 бит
Метод сжатия : С потерями
Размер потока : 1,31 Гбайт (2%)
Заголовок : | Дублированный, Le Doyen |
Язык : Ukrainian
Default : Нет
Forced : Нет

Аудио #5
Идентификатор : 6
Формат : DTS
Формат/Информация : Digital Theater Systems
Профиль формата : X / MA / Core
Идентификатор кодека : A_DTS
Продолжительность : 2 ч. 4 м.
Вид битрейта : Переменный / Переменный / Постоянный
Битрейт : 3072 Кбит/сек / 3072 Кбит/сек / 1509 Кбит/сек
Каналы : Object Based / 8 каналов / 6 каналов
Расположение каналов : Object Based / Front: L C R, Side: L R, Back: L R, LFE / Front: L C R, Side: L R, LFE
Частота : / 48,0 КГц / 48,0 КГц
Частота кадров : 93,750 кадра/сек (512 SPF)
Битовая глубина : / 24 бит / 24 бит
Метод сжатия : / Lossless / Lossy
Размер потока : 2,65 Гбайт (5%)
Заголовок : | Original |
Язык : English
Default : Нет
Forced : Нет

Текст #1
Идентификатор : 7
Формат : UTF-8
Идентификатор кодека : S_TEXT/UTF8
Идентификатор кодека/Информация : UTF-8 Plain Text
Продолжительность : 1 ч. 42 м.
Битрейт : 0 бит/сек
ElementCount : 20
Размер потока : 560 байт (0%)
Заголовок : Forced
Язык : Russian
Default : Да
Forced : Да

Текст #2
Идентификатор : 8
Формат : UTF-8
Идентификатор кодека : S_TEXT/UTF8
Идентификатор кодека/Информация : UTF-8 Plain Text
Продолжительность : 1 ч. 53 м.
Битрейт : 65 бит/сек
ElementCount : 1223
Размер потока : 54,6 Кбайт (0%)
Заголовок : Full
Язык : Russian
Default : Нет
Forced : Нет

Текст #3
Идентификатор : 9
Формат : UTF-8
Идентификатор кодека : S_TEXT/UTF8
Идентификатор кодека/Информация : UTF-8 Plain Text
Продолжительность : 2 ч. 2 м.
Битрейт : 57 бит/сек
ElementCount : 1222
Размер потока : 51,4 Кбайт (0%)
Заголовок : Full
Язык : Ukrainian
Default : Нет
Forced : Нет

Текст #4
Идентификатор : 10
Формат : UTF-8
Идентификатор кодека : S_TEXT/UTF8
Идентификатор кодека/Информация : UTF-8 Plain Text
Продолжительность : 1 ч. 53 м.
Битрейт : 53 бит/сек
ElementCount : 1487
Размер потока : 44,9 Кбайт (0%)
Заголовок : Full
Язык : English
Default : Нет
Forced : Нет

Текст #5
Идентификатор : 11
Формат : UTF-8
Идентификатор кодека : S_TEXT/UTF8
Идентификатор кодека/Информация : UTF-8 Plain Text
Продолжительность : 1 ч. 53 м.
Битрейт : 52 бит/сек
ElementCount : 1492
Размер потока : 44,0 Кбайт (0%)
Заголовок : SDH
Язык : English
Default : Нет
Forced : Нет

Текст #6
Идентификатор : 12
Формат : UTF-8
Идентификатор кодека : S_TEXT/UTF8
Идентификатор кодека/Информация : UTF-8 Plain Text
Продолжительность : 1 ч. 53 м.
Битрейт : 51 бит/сек
ElementCount : 1457
Размер потока : 43,2 Кбайт (0%)
Заголовок : SDH2
Язык : English
Default : Нет
Forced : Нет

Текст #7
Идентификатор : 13
Формат : UTF-8
Идентификатор кодека : S_TEXT/UTF8
Идентификатор кодека/Информация : UTF-8 Plain Text
Продолжительность : 1 ч. 53 м.
Битрейт : 65 бит/сек
ElementCount : 1495
Размер потока : 54,7 Кбайт (0%)
Заголовок : SDH-Colored
Язык : English
Default : Нет
Forced : Нет

Меню
00:00:00.000 : en:Chapter 1
00:06:59.168 : en:Chapter 2
00:11:01.827 : en:Chapter 3
00:18:28.440 : en:Chapter 4
00:25:34.866 : en:Chapter 5
00:31:20.837 : en:Chapter 6
00:39:23.861 : en:Chapter 7
00:44:07.853 : en:Chapter 8
00:48:57.225 : en:Chapter 9
00:55:51.056 : en:Chapter 10
01:01:21.344 : en:Chapter 11
01:09:50.561 : en:Chapter 12
01:15:25.479 : en:Chapter 13
01:23:51.860 : en:Chapter 14
01:30:14.700 : en:Chapter 15
01:36:45.424 : en:Chapter 16
01:41:15.652 : en:Chapter 17
01:47:35.282 : en:Chapter 18
01:53:06.029 : en:Chapter 19
01:55:37.555 : en:Chapter 20




Скачать Мир Юрского периода через торрент https://b.radikal.ru/b00/1805/65/aaa2b2290a80.png Скачать, смотреть онлайн Мир Юрского периода бесплантно в хорошем качестве Описание: Действие происходит через 22 года после событий «Парка Юрского периода». На острове Нублар функционирует парк, задуманный Джоном ... 10 10 6
Торрент: Зарегистрирован [2018-05-22 21:02] · скачан: 87 раз
Статус: √ проверено
Размер: 53.07 GB
Как cкачать? Как скачать Мир Юрского периода через торрент | UTorrent

% Раздел Тема Автор DL S | L
Фильмы (HD 720p, 1080p) (48-60 fps) [ 6.92 GB ] Мир Юрского периода: Господство / Jurassic World Dominion | Дубляж | 720p / 60 FPS slaventi-69 Скачать
3 | 0
3D Фильмы [ 33.78 GB ] Мир Юрского периода: Господство в 3Д / Jurassic World: Dominion 3D | а | 1080p serega768 Скачать
3 | 0
Фильмы (HD 720p, 1080p) (48-60 fps) [ 6.3 GB ] Мир Юрского периода: Господство / Jurassic World Dominion | Дубляж | DLRip 720p / 60 FPS slaventi-69 Скачать
1 | 0
Фильмы 2022-2023 [DVDrip, WEB-DLRip, HDrip] (DUB, MVO) [ 2.18 GB ] Мир Юрского периода: Господство / Jurassic World Dominion | Jaskier | BDRip bober100 Скачать
3 | 0
Фильмы 2022-2023 [DVDrip, WEB-DLRip, HDrip] (DUB, MVO) [ 1.46 GB ] Мир Юрского периода: Господство / Jurassic World Dominion | Jaskier | BDRip bober100 Скачать
2 | 0
Фильмы (Blu-ray, BD-Remux, HDDVD) [ 29.48 GB ] Мир Юрского периода: Господство / Jurassic World Dominion | Jaskier | BD Remux 1080p bober100 Скачать
3 | 0
Фильмы 2022-2023 [DVDrip, WEB-DLRip, HDrip] (DUB, MVO) [ 4.86 GB ] Мир Юрского периода: Господство / Jurassic World Dominion | Jaskier | HDRip-AVC bober100 Скачать
8 | 0

28-11-2019 20:33  


Отключить вcю реклaмy на сайте, в т.ч. и в плеере онлайн просмотра!

    Дорогой пользователь! Огромная просьба, поблагодарите релизера, оцените раздачу и оставьте свои комментарий, если Вы скачали Мир Юрского периода через торрент бесплатно!!
    Комментировать посты могут только пользователи прошедшие не сложную регистрацию
    Показать сообщения:    


    Мир Юрского периода через торрент
    Скачать бесплатно Мир Юрского периода
    Мир Юрского периода скачать торрент
    Мир Юрского периода смотреть онлайн
    Cкачать фильм Мир Юрского периода бесплатно
    Мир Юрского периода скачать торрент в хорошем качестве
    Мир Юрского периода смотреть онлайн бесплатно в хорошем качестве
    Вы не можете начинать темы
    Вы не можете отвечать на сообщения
    Вы не можете редактировать свои сообщения
    Вы не можете удалять свои сообщения
    Вы не можете голосовать в опросах
    Вы не можете прикреплять файлы к сообщениям
    Вы можете скачивать файлы
    Мир Юрского периода / Jurassic World [2015, Фантастика, приключения, UHD BDRemux 2160p] AVO [А.Гаврилов] +Дубляж [Лицензия] смотреть онлайн, скачать торрент picoco.icu