Достать ножи: Стеклянная луковица

MVO

Добыча

Дубляж

Уэнсдэй

1 сезон

Тор

Дубляж

13 клиническая

1 сезон

Жестокая ночь

MVO

Одни из нас

1 сезон

Deluxe

pack

Рекомендуем

30

Пиратка

ВАЖНО

ВАЖНО

Ghostwire

Пиратка

jed

RePack

nioh2

RePack

RDR2

RePack

NEED FOR SPEED™ PAYBACK

RePack

скачать торрент

Кинопоиск HD

Острые козырьки 6 сезон

6 сезон

FAR CRY 6

RePack

скачать торрент

Лицензия

скачать торрент

MVO

1

1 сезон

скачать торрент

1 сезон

скачать торрент

Лицензия

  

Три билборда на границе Эббинга, Миссури / Three Billboards Outside Ebbing, Missouri (Мартин МакДона) [2017, драма, комедия, кримина, UHD BD Remux 2160p] DVO [Кубик в кубе]

Три билборда на границе Эббинга, Миссури через торрент 5050.piratbit.fun

Размер: 48.85 GB | Добавлен: 4 года 8 мес. назад | Торрент скачан:32 раза
Смотреть онлайн | Скачать | Поддержите нас   

23-05-2018 14:23 Три билборда на границе Эббинга, Миссури Скачать торрент  

Три билборда на границе Эббинга, Миссури / Three Billboards Outside Ebbing, Missouri
Год выпуска: 2017
Страна: Великобритания США
Жанр: драма, комедия, криминал
Продолжительность: 01:55:20
Перевод:

Профессиональный двухголосый | Кубик в кубе

Субтитры: английские

Режиссер: Мартин МакДона

rating

В ролях:

Фрэнсис МакДорманд, Калеб Лэндри Джонс, Керри Кондон, Сэм Рокуэлл, Алехандро Барриос, Джейсон Редфорд, Даррел Бритт-Гибсон

Описание:

Спустя несколько месяцев после убийства дочери Милдред Хейс преступники так и не найдены. Отчаявшаяся женщина решается на смелый шаг, арендуя на въезде в город три биллборда с посланием к авторитетному главе полиции Уильяму Уиллоуби. Когда в ситуацию оказывается втянут ещё и заместитель шерифа, инфантильный маменькин сынок со склонностью к насилию, офицер Диксон, борьба между Милдред и властями города только усугубляется...

Качество: UHD BD Remux 2160p
Формат: MKV

Видео: H.265/HEVC, 3840x2160, (16:9), 53.3 Mbps, 23.976 fps
Аудио#1: DTS-HD MA, 6 ch, 3640 kbps - Русский
Аудио#2: DTS-HD MA, 6 ch, 3625 kbps - Английский
скриншот  скриншот  скриншот  скриншот  

General
Unique ID : 262296027443338052623075660968011439284 (0xC554609A513620BC8604596E408B1CB4)
Complete name : Three.Billboards.Outside.Ebbing.Missouri.2017.2160p.UHD.BluRay.REMUX.HDR.HEVC.DTS-HD.MA.5.1-CasStudio.mkv
Format : Matroska
Format version : Version 4 / Version 2
File size : 48.9 GiB
Duration : 1 h 55 min
Overall bit rate : 60.6 Mb/s
Movie name : Three Billboards Outside Ebbing, Missouri (2017) - release by messafan for CasStudio
Encoded date : UTC 2018-03-10 22:01:33
Writing application : mkvmerge v21.0.0 ('Tardigrades Will Inherit The Earth') 64-bit
Writing library : libebml v1.3.5 + libmatroska v1.4.8

Video
ID : 1
Format : HEVC
Format/Info : High Efficiency Video Coding
Format profile : Main [email protected]@High
Codec ID : V_MPEGH/ISO/HEVC
Duration : 1 h 55 min
Bit rate : 53.3 Mb/s
Width : 3 840 pixels
Height : 2 160 pixels
Display aspect ratio : 16:9
Frame rate mode : Constant
Frame rate : 23.976 (24000/1001) FPS
Color space : YUV
Chroma subsampling : 4:2:0 (Type 2)
Bit depth : 10 bits
Bits/(Pixel*Frame) : 0.268
Stream size : 43.0 GiB (88%)
Language : English
Default : Yes
Forced : No
Color range : Limited
Color primaries : BT.2020
Transfer characteristics : PQ
Matrix coefficients : BT.2020 non-constant
Mastering display color primaries : Display P3
Mastering display luminance : min: 0.0050 cd/m2, max: 1000 cd/m2

Audio #1
ID : 2
Format : DTS
Format/Info : Digital Theater Systems
Format profile : MA / Core
Codec ID : A_DTS
Duration : 1 h 55 min
Bit rate mode : Variable / Constant
Bit rate : 3 640 kb/s / 1 509 kb/s
Channel(s) : 6 channels
Channel positions : Front: L C R, Side: L R, LFE
Sampling rate : 48.0 kHz
Frame rate : 93.750 FPS (512 SPF)
Bit depth : 24 bits
Compression mode : Lossless / Lossy
Stream size : 2.93 GiB (6%)
Title : KvK DTS-HD MA 5.1 @ 3641kbps
Language : Russian
Default : Yes
Forced : No

Audio #2
ID : 3
Format : DTS
Format/Info : Digital Theater Systems
Format profile : MA / Core
Codec ID : A_DTS
Duration : 1 h 55 min
Bit rate mode : Variable / Constant
Bit rate : 3 625 kb/s / 1 509 kb/s
Channel(s) : 6 channels
Channel positions : Front: L C R, Side: L R, LFE
Sampling rate : 48.0 kHz
Frame rate : 93.750 FPS (512 SPF)
Bit depth : 24 bits
Compression mode : Lossless / Lossy
Stream size : 2.92 GiB (6%)
Title : English DTS-HD MA 5.1 @ 3625kbps
Language : English
Default : No
Forced : No

Text
ID : 4
Format : PGS
Codec ID : S_HDMV/PGS
Codec ID/Info : Picture based subtitle format used on BDs/HD-DVDs
Duration : 1 h 53 min
Bit rate : 48.0 kb/s
Count of elements : 3476
Stream size : 38.8 MiB (0%)
Title : SDH
Language : English
Default : No
Forced : No

Menu
00:00:00.000 : en:Chapter 1
00:05:42.092 : en:Chapter 2
00:08:56.911 : en:Chapter 3
00:12:50.019 : en:Chapter 4
00:19:46.644 : en:Chapter 5
00:23:43.547 : en:Chapter 6
00:27:36.363 : en:Chapter 7
00:31:35.769 : en:Chapter 8
00:35:08.690 : en:Chapter 9
00:40:54.827 : en:Chapter 10
00:44:35.715 : en:Chapter 11
00:49:18.789 : en:Chapter 12
00:55:35.916 : en:Chapter 13
00:59:56.134 : en:Chapter 14
01:04:09.888 : en:Chapter 15
01:10:55.293 : en:Chapter 16
01:15:36.699 : en:Chapter 17
01:23:08.734 : en:Chapter 18
01:27:24.489 : en:Chapter 19
01:35:49.702 : en:Chapter 20
01:40:32.693 : en:Chapter 21
01:44:02.194 : en:Chapter 22
01:46:56.910 : en:Chapter 23
01:49:55.005 : en:Chapter 24




Скачать Три билборда на границе Эббинга, Миссури через торрент https://pic1.kartinco.top/images/11/k2ntk.jpg Скачать, смотреть онлайн Три билборда на границе Эббинга, Миссури бесплантно в хорошем качестве Описание: Спустя несколько месяцев после убийства дочери Милдред Хейс преступники так и не найдены. Отчаявшаяся женщина решается на смелый ... 10 10 3
Info! Золотая раздача, скачанное не засчитывается.
Торрент: Зарегистрирован [2018-05-23 14:23] · скачан: 32 раз
Статус: √ проверено
Размер: 48.85 GB
Как cкачать? Как скачать Три билборда на границе Эббинга, Миссури через торрент | UTorrent

% Раздел Тема Автор DL S | L
Фильмы 2017 [DVDrip, WEB-DLRip, HDrip] (DUB, MVO) [ 2.18 GB ] Три билборда на границе Эббинга, Миссури / Three Billboards Outside Ebbing, Missouri | Лицензия | BDRip Twi7ter Скачать
1 | 0
R.G. Resident & PiratVoice - Фильмы, Видео [ 933 MB ] Три Билборда на Границе Эббинга, Миссури / Three Billboards Outside Ebbing, Missouri | Ы + Original | BDRip Клерик Скачать
1 | 0
Ultra HD (UHD: 2K, 4K, 8K) [ 15.14 GB ] Три билборда на границе Эббинга, Миссури / Three Billboards Outside Ebbing, Missouri | DUB + AVO | 2160p sheker187 Скачать
1 | 0
Фильмы 2017 [DVDrip, WEB-DLRip, HDrip] (DUB, MVO) [ 2.67 GB ] Три билборда на границе Эббинга, Миссури / Three Billboards Outside Ebbing, Missouri | Лицензия | HDRip-AVC Enigma2010 Скачать
1 | 0
Фильмы (Blu-ray, BD-Remux, HDDVD) [ 36.73 GB ] Три билборда на границе Эббинга, Миссури / Three Billboards Outside Ebbing, Missouri | Лицензия | BD Remux 1080p bober100 Скачать
1 | 0
Фильмы [HD 720p, 1080p] (Хороший звук DUB, MVO) [ 15.56 GB ] Три билборда на границе Эббинга, Миссури / Three Billboards Outside Ebbing, Missouri | | 1080p killermax2013 Скачать
2 | 0
Фильмы 2017 [DVDrip, WEB-DLRip, HDrip] (DUB, MVO) [ 745 MB ] Три билборда на границе Эббинга, Миссури / Three Billboards Outside Ebbing, Missouri | Лицензия | BDRip-AVC sokol_ok Скачать
2 | 0

28-11-2019 20:33  


Отключить вcю реклaмy на сайте, в т.ч. и в плеере онлайн просмотра!

    Дорогой пользователь! Огромная просьба, поблагодарите релизера, оцените раздачу и оставьте свои комментарий, если Вы скачали Три билборда на границе Эббинга, Миссури через торрент бесплатно!!
    Комментировать посты могут только пользователи прошедшие не сложную регистрацию
    Показать сообщения:    


    Три билборда на границе Эббинга, Миссури через торрент
    Скачать бесплатно Три билборда на границе Эббинга, Миссури
    Три билборда на границе Эббинга, Миссури скачать торрент
    Три билборда на границе Эббинга, Миссури смотреть онлайн
    Cкачать фильм Три билборда на границе Эббинга, Миссури бесплатно
    Три билборда на границе Эббинга, Миссури скачать торрент в хорошем качестве
    Три билборда на границе Эббинга, Миссури смотреть онлайн бесплатно в хорошем качестве
    Вы не можете начинать темы
    Вы не можете отвечать на сообщения
    Вы не можете редактировать свои сообщения
    Вы не можете удалять свои сообщения
    Вы не можете голосовать в опросах
    Вы не можете прикреплять файлы к сообщениям
    Вы можете скачивать файлы
    Три билборда на границе Эббинга, Миссури / Three Billboards Outside Ebbing, Missouri [2017, драма, комедия, кримина, UHD BD Remux 2160p] DVO [Кубик в кубе] смотреть онлайн, скачать торрент picoco.icu