Достать ножи: Стеклянная луковица

MVO

Добыча

Дубляж

Уэнсдэй

1 сезон

Тор

Дубляж

13 клиническая

1 сезон

Жестокая ночь

MVO

Одни из нас

1 сезон

Deluxe

pack

Рекомендуем

30

Пиратка

ВАЖНО

ВАЖНО

Ghostwire

Пиратка

jed

RePack

nioh2

RePack

RDR2

RePack

NEED FOR SPEED™ PAYBACK

RePack

скачать торрент

Кинопоиск HD

Острые козырьки 6 сезон

6 сезон

FAR CRY 6

RePack

скачать торрент

Лицензия

скачать торрент

MVO

1

1 сезон

скачать торрент

1 сезон

скачать торрент

Лицензия

  

Изгой-один: Звёздные войны. Истории / Rogue One (Гарет Эдвардс) [2016, фантастика, боевик, приключения, UHD WEBRip 2160p] Дубляж - [Лицензия]

Изгой-один: Звёздные войны. Истории через торрент 5050.piratbit.fun

Размер: 42.63 GB | Добавлен: 4 года 8 мес. назад | Торрент скачан:129 раз
Смотреть онлайн | Скачать | Поддержите нас   

23-05-2018 18:00 Изгой-один: Звёздные войны. Истории Скачать торрент  

Изгой-один: Звёздные войны. Истории / Rogue One«Мятеж с надеждой в сердце»
Год выпуска: 2016
Страна: США
Жанр: фантастика, боевик, приключения
Продолжительность: 02:13:57
Перевод: Дублированный
Субтитры: Oтсутствуют
Режиссер: Гарет Эдвардс
В ролях:

Фелисити Джонс (Jyn Erso), Диего Луна (Cassian Andor), Алан Тьюдик (K-2SO), Донни Йен (Chirrut Îmwe), Цзян Вэнь (Baze Malbus), Бен Мендельсон (Orson Krennic), Гай Генри (Governor Tarkin), Форест Уитакер (Saw Gerrera), Риз Ахмед (Bodhi Rook), Мадс Миккельсен (Galen Erso), Джимми Смитс (Bail Organa), Алистэр Петри (General Draven)
Описание:
Сопротивление собирает отряд для выполнения особой миссии - надо выкрасть чертежи самого совершенного и смертоносного оружия Империи. Возглавляет бойцов неуправляемая и бесстрашная Джин Эрсо, у которой в этом самоубийственном задании есть и личные мотивы. Не всем суждено вернуться домой, но герои готовы к этому, ведь на кону судьба Галактики.
Рейтинг:

MPAA: PG-13 - Детям до 13 лет просмотр не желателен
Качество: UHD WEBRip 2160p
Формат: MKV
Видео: HEVC, HDR, 39.8 Мбит/с, 3840x1608, 23.976 кадр/с
Аудио #1: AC-3, 6 ch, 640 Kbps, 48.0 kHz - Русский
Аудио #2: DTS-HD MA, 8 ch, 5 136 Kbps, 48.0 kHz - Английский
Навигация по главам: есть
Оскар, 2017 год
Номинации (2):
Лучший звук
Лучшие визуальные эффекты

Британская академия, 2017 год
Номинации (2):
Лучшие визуальные эффекты
Лучший грим/прически
* Это первый фильм киноэпопеи «Звёздные войны», музыку к которому написал не Джон Уильямс.
* Сюжетная канва фильма разворачивается до событий, описанных в фильме «Звёздные войны: Эпизод 4 — Новая надежда» (1977), и через пять лет после событий, о которых рассказано в мультсериале «Звёздные войны: Повстанцы» (2014).
* Утверждают, что съёмки фильма «Звёздные войны: Изгой», первого в серии «Антология Звёздных войн», начались 1 июля 2015 года в павильонах «Pinewood Studios» в Лондоне.
* Не считая телефильма «Звёздные войны: Праздничный спецвыпуск», это восьмой фильм киносаги «Звёздные войны».
* Режиссер хотел, чтобы необычные создания фильма органично вписались в реалистичный мир. Поэтому на площадке с ними общались точно так же, как с обычными актерами, несмотря на то, что команда визажистов и гримеров уже нанесла на их лица слои пыли, сажи, пота и слизи. На эти мелочи никто не обращал внимания.
* Многие фанаты узнают базу повстанцев на планете Явин 4, которая впервые появилась на экране в фильме «Звёздные войны: Эпизод 4 – Новая надежда». По финансовым соображениям Лукас смог выстроить только часть базы. Масштаб он создавал при помощи доступных в то время визуальных эффектов. Создатели фильма «Изгой-один: Звёздные войны. Истории» могли себе позволить отстроить базу повстанцев полностью. Съемочная группа посетила легендарную локацию – оригинальную площадку планеты Явин 4 на аэродроме Кардингтон в Великобритании. Огромные ангары позволили художникам и декораторам создать базу на Явин 4 в натуральную величину. Размеры площадки поражали – около 106 метров в длину и 61 метра в ширину.
Format : Matroska
Format version : Version 4 / Version 2
File size : 42.6 GiB
Duration : 2 h 13 min
Overall bit rate : 45.6 Mb/s
Movie name : Rogue One: A Star Wars Story 4K
Encoded date : UTC 2017-04-18 14:33:58
Writing application : mkvmerge v10.0.0 ('To Drown In You') 64bit
Writing library : libebml v1.3.4 + libmatroska v1.4.5
Cover : Yes
Attachments : cover.jpg

Video
ID : 1
Format : HEVC
Format/Info : High Efficiency Video Coding
Format profile : @[email protected]
Codec ID : V_MPEGH/ISO/HEVC
Duration : 2 h 13 min
Bit rate : 39.8 Mb/s
Width : 3 840 pixels
Height : 1 608 pixels
Display aspect ratio : 2.40:1
Frame rate mode : Constant
Frame rate : 23.976 (24000/1001) FPS
Color space : YUV
Chroma subsampling : 4:2:2 (Type 2)
Bit depth : 10 bits
Bits/(Pixel*Frame) : 0.269
Stream size : 37.2 GiB (87%)
Writing library : x265 2.3+17-6e348252e902:[Windows][GCC 6.3.0][64 bit] 10bit
Encoding settings : cpuid=1173503 / frame-threads=3 / numa-pools=8 / wpp / no-pmode / no-pme / no-psnr / no-ssim / log-level=2 / input-csp=2 / input-res=3840x1608 / interlace=0 / total-frames=192703 / level-idc=0 / high-tier=1 / uhd-bd=0 / ref=1 / no-allow-non-conformance / repeat-headers / annexb / no-aud / no-hrd / info / hash=0 / no-temporal-layers / no-open-gop / min-keyint=23 / keyint=250 / bframes=3 / b-adapt=0 / b-pyramid / bframe-bias=0 / rc-lookahead=5 / lookahead-slices=8 / scenecut=40 / no-intra-refresh / ctu=32 / min-cu-size=16 / no-rect / no-amp / max-tu-size=32 / tu-inter-depth=1 / tu-intra-depth=1 / limit-tu=0 / rdoq-level=0 / dynamic-rd=0.00 / no-signhide / no-tskip / nr-intra=0 / nr-inter=0 / no-constrained-intra / strong-intra-smoothing / max-merge=2 / limit-refs=0 / no-limit-modes / me=3 / subme=5 / merange=57 / temporal-mvp / no-weightp / no-weightb / no-analyze-src-pics / deblock=0:0 / no-sao / no-sao-non-deblock / rd=2 / early-skip / no-rskip / fast-intra / no-tskip-fast / no-cu-lossless / no-b-intra / rdpenalty=0 / psy-rd=4.00 / psy-rdoq=0.00 / no-rd-refine / analysis-mode=0 / no-lossless / cbqpoffs=0 / crqpoffs=0 / rc=abr / bitrate=40000 / qcomp=0.60 / qpstep=1 / stats-write=0 / stats-read=0 / ipratio=1.10 / pbratio=1.00 / aq-mode=0 / aq-strength=0.00 / no-cutree / zone-count=0 / no-strict-cbr / qg-size=32 / rc-grain / qpmax=69 / qpmin=0 / sar=0 / overscan=0 / videoformat=5 / range=0 / colorprim=9 / transfer=16 / colormatrix=9 / chromaloc=1 / chromaloc-top=2 / chromaloc-bottom=2 / display-window=0 / master-display=G(8500,39850)B(6550,2300)R(35400,14600)WP(15635,16450)L(100000000,1) / max-cll=10000,180 / min-luma=0 / max-luma=1023 / log2-max-poc-lsb=8 / vui-timing-info / vui-hrd-info / slices=1 / opt-qp-pps / opt-ref-list-length-pps / no-multi-pass-opt-rps / scenecut-bias=0.05 / no-opt-cu-delta-qp / no-aq-motion / hdr / no-hdr-optrefine-level=5
Default : Yes
Forced : No
Color range : Limited
Color primaries : BT.2020
Transfer characteristics : SMPTE ST 2084
Matrix coefficients : BT.2020 non-constant
Mastering display color pri : R: x=0.708000 y=0.292000, G: x=0.170000 y=0.797000, B: x=0.131000 y=0.046000, White point: x=0.312700 y=0.329000
Mastering display luminance : min: 0.0001 cd/m2, max: 10000.0000 cd/m2
Maximum Content Light Level : 10000 cd/m2
Maximum Frame-Average Light : 180 cd/m2

Audio #1
ID : 2
Format : AC-3
Format/Info : Audio Coding 3
Format settings, Endianness : Big
Codec ID : A_AC3
Duration : 2 h 13 min
Bit rate mode : Constant
Bit rate : 640 kb/s
Channel(s) : 6 channels
Channel positions : Front: L C R, Side: L R, LFE
Sampling rate : 48.0 kHz
Frame rate : 31.250 FPS (1536 spf)
Bit depth : 16 bits
Compression mode : Lossy
Delay relative to video : 16 ms
Stream size : 613 MiB (1%)
Title : Русский AC-3 640 kb/s
Language : Russian
Service kind : Complete Main
Default : Yes
Forced : No

Audio #2
ID : 3
Format : DTS
Format/Info : Digital Theater Systems
Format profile : MA / Core
Mode : 16
Format settings, Endianness : Big
Codec ID : A_DTS
Duration : 2 h 13 min
Bit rate mode : Variable / Constant
Bit rate : 5 136 kb/s / 1 509 kb/s
Channel(s) : 8 channels / 6 channels
Channel positions : Front: L C R, Side: L R, Back: L R, LFE / Front: L C R, Side: L R, LFE
Sampling rate : 48.0 kHz
Frame rate : 93.750 FPS (512 spf)
Bit depth : 24 bits
Compression mode : Lossless / Lossy
Delay relative to video : 3 ms
Stream size : 4.80 GiB (11%)
Title : English DTS-HD Master Audio 7.1
Language : English
Default : No
Forced : No

Menu
00:00:00.000 : en:00:00:00.000
00:02:34.654 : en:00:02:34.654
00:07:46.466 : en:00:07:46.466
00:08:42.814 : en:00:08:42.814
00:11:04.622 : en:00:11:04.622
00:12:21.199 : en:00:12:21.199
00:13:41.154 : en:00:13:41.154
00:17:19.914 : en:00:17:19.914
00:20:09.542 : en:00:20:09.542
00:21:54.772 : en:00:21:54.772
00:23:47.092 : en:00:23:47.092
00:24:31.386 : en:00:24:31.386
00:26:53.445 : en:00:26:53.445
00:27:46.623 : en:00:27:46.623
00:30:37.294 : en:00:30:37.294
00:33:53.406 : en:00:33:53.406
00:37:11.271 : en:00:37:11.271
00:42:30.089 : en:00:42:30.089
00:47:16.125 : en:00:47:16.125
00:51:04.144 : en:00:51:04.144
00:52:23.724 : en:00:52:23.724
00:55:53.266 : en:00:55:53.266
00:59:48.251 : en:00:59:48.251
01:02:07.807 : en:01:02:07.807
01:05:25.505 : en:01:05:25.505
01:10:24.095 : en:01:10:24.095
01:12:49.532 : en:01:12:49.532
01:16:28.459 : en:01:16:28.459
01:19:04.323 : en:01:19:04.323
01:21:55.160 : en:01:21:55.160
01:23:25.667 : en:01:23:25.667
01:25:58.987 : en:01:25:58.987
01:27:34.958 : en:01:27:34.958
01:29:57.308 : en:01:29:57.308
01:31:53.841 : en:01:31:53.841
01:34:18.736 : en:01:34:18.736
01:36:07.512 : en:01:36:07.512
01:37:48.237 : en:01:37:48.237
01:40:27.605 : en:01:40:27.605
01:42:44.074 : en:01:42:44.074
01:45:26.779 : en:01:45:26.779
01:47:55.010 : en:01:47:55.010
01:50:31.416 : en:01:50:31.416
01:53:28.885 : en:01:53:28.885
01:55:46.272 : en:01:55:46.272
01:59:23.448 : en:01:59:23.448
02:01:11.347 : en:02:01:11.347
02:03:15.596 : en:02:03:15.596
02:05:42.118 : en:02:05:42.118



Скачать Изгой-один: Звёздные войны. Истории через торрент http://picsee.net/upload/2018-05-23/85a5aa9b8d18.gif Скачать, смотреть онлайн Изгой-один: Звёздные войны. Истории бесплантно в хорошем качестве Описание: Сопротивление собирает отряд для выполнения особой миссии - надо выкрасть чертежи самого совершенного и смертоносного оружия ... 10 10 5
Info! Золотая раздача, скачанное не засчитывается.
Торрент: Зарегистрирован [2018-05-23 18:00] · скачан: 129 раз
Статус: √ проверено
Размер: 42.63 GB
Как cкачать? Как скачать Изгой-один: Звёздные войны. Истории через торрент | UTorrent

% Раздел Тема Автор DL S | L
Ultra HD (UHD: 2K, 4K, 8K) [ 48.85 GB ] Изгой-один: Звёздные войны. Истории / Rogue One: A Star Wars Story | Лицензия | 2160p bober100 Скачать
1 | 0
Фильмы [HD 720p, 1080p] (Хороший звук DUB, MVO) [ 11.52 GB ] Изгой-один: Звёздные войны. Истории / Rogue One: A Star Wars Story | DUB + 3xAVO + VO | 1080p от KORSAR Cthulhu Скачать
1 | 0
Фильмы (Blu-ray, BD-Remux, HDDVD) [ 56.6 GB ] Изгой-один: Звёздные войны. Истории / Rogue One: A Star Wars Story | Лицензия | BD Remux 1080p bober100 Скачать
1 | 0
Фильмы с авторской озвучкой [ 4.97 GB ] Изгой-один: Звёздные войны. Истории / Rogue One: A Star Wars Story | | 720p, Авторский одноголосый Андрей Гаврилов morfyi Скачать
1 | 0
Фильмы с авторской озвучкой [ 2.61 GB ] Изгой-один: Звёздные войны. Истории / Rogue One: A Star Wars Story | | BDRip-AVC, Авторский одноголосый Андрей Гаврилов morfyi Скачать
1 | 0
Фильмы [HD 720p, 1080p] (Хороший звук DUB, MVO) [ 7.19 GB ] Изгой-один: Звёздные войны. Истории / Rogue One: A Star Wars Story | Дубляж BD CEE | 720p, Дубляж BD CEE, MVO, 2 x AVO morfyi Скачать
1 | 0
Фильмы с авторской озвучкой [ 2.18 GB ] Изгой-один: Звёздные войны. Истории / Rogue One: A Star Wars Story | AVO | HDRip killermax2013 Скачать
1 | 0

28-11-2019 20:33  


Отключить вcю реклaмy на сайте, в т.ч. и в плеере онлайн просмотра!

31-05-2018 22:33 Изгой-один: Звёздные войны. Истории Скачать торрент  

если осталось у кого ,встаньте на раздачу пожалуйста



    Дорогой пользователь! Огромная просьба, поблагодарите релизера, оцените раздачу и оставьте свои комментарий, если Вы скачали Изгой-один: Звёздные войны. Истории через торрент бесплатно!!
    Комментировать посты могут только пользователи прошедшие не сложную регистрацию
    Показать сообщения:    


    Изгой-один: Звёздные войны. Истории через торрент
    Скачать бесплатно Изгой-один: Звёздные войны. Истории
    Изгой-один: Звёздные войны. Истории скачать торрент
    Изгой-один: Звёздные войны. Истории смотреть онлайн
    Cкачать фильм Изгой-один: Звёздные войны. Истории бесплатно
    Изгой-один: Звёздные войны. Истории скачать торрент в хорошем качестве
    Изгой-один: Звёздные войны. Истории смотреть онлайн бесплатно в хорошем качестве
    Вы не можете начинать темы
    Вы не можете отвечать на сообщения
    Вы не можете редактировать свои сообщения
    Вы не можете удалять свои сообщения
    Вы не можете голосовать в опросах
    Вы не можете прикреплять файлы к сообщениям
    Вы можете скачивать файлы
    Изгой-один: Звёздные войны. Истории / Rogue One [2016, фантастика, боевик, приключения, UHD WEBRip 2160p] Дубляж - [Лицензия] смотреть онлайн, скачать торрент picoco.icu