Достать ножи: Стеклянная луковица

MVO

Добыча

Дубляж

Уэнсдэй

1 сезон

Тор

Дубляж

13 клиническая

1 сезон

Жестокая ночь

MVO

Одни из нас

1 сезон

Deluxe

pack

Рекомендуем

30

Пиратка

ВАЖНО

ВАЖНО

Ghostwire

Пиратка

jed

RePack

nioh2

RePack

RDR2

RePack

NEED FOR SPEED™ PAYBACK

RePack

скачать торрент

Кинопоиск HD

Острые козырьки 6 сезон

6 сезон

FAR CRY 6

RePack

скачать торрент

Лицензия

скачать торрент

MVO

1

1 сезон

скачать торрент

1 сезон

скачать торрент

Лицензия

  

Парк Юрского периода 2: Затерянный мир / The Lost World: Jurassic Park (Стивен Спилберг) [1997, Фантастика, боевик, триллер, приключения, UHD BDRemux 2160p] 7xMVO+Дубляж+7xAVO+3xVO (ukr)

Парк Юрского периода 2: Затерянный мир через торрент 5050.piratbit.fun

Размер: 99.71 GB | Добавлен: 4 года 8 мес. назад | Торрент скачан:21 раз
Смотреть онлайн | Скачать | Поддержите нас   

24-05-2018 01:47 Парк Юрского периода 2: Затерянный мир Скачать торрент  

Парк Юрского периода 2: Затерянный мир / The Lost World: Jurassic Park
«Но все-таки кто-то выжил» Год выпуска: 1997
Страна: США
Жанр: Фантастика, боевик, триллер, приключения
Продолжительность: 02:08:39
Перевод: Профессиональный (многоголосый), Дублированный, Авторский
Субтитры: Russian (2хfull, SDH) English (full, SDH)

Режиссер: Стивен Спилберг

rating

В ролях:

Джефф Голдблюм (Ian Malcolm), Джулианна Мур (Sarah Harding), Винс Вон (Nick Van Owen), Ванесса Ли Честер (Kelly Curtis), Пит Постлетуэйт (Roland Tembo), Арлисс Ховард (Peter Ludlow), Ричард Аттенборо (John Hammond), Ричард Шифф (Eddie Carr), Петер Стормаре (Dieter Stark), Харви Джейсон (Ajay Sidhu), Томас Ф. Даффи (Dr. Robert Burke), Джозеф Маццелло (Tim)
Описание:

Фильм снят по мотивам романа Майкла Крайтона «Затерянный мир». События этого фильма разворачиваются через четыре года после того, что произошло в «Парке Юрского периода». На близлежащем острове динозавры выжили и адаптировались к дикой природе. Но вот находится Некто, кто хочет перевезти их на материк и заработать на этом, не понимая, какими могут быть последствия, и посылает на остров своих людей. Джон Хэммонд, который потерял контроль над своей компанией, считает, что у него появился шанс исправить свои прошлые ошибки. Он, в свою очередь, снаряжает экспедицию во главе с Яном Малкольмом, чтобы появиться там до высадки наемников. В результате происходящих событий две эти конфликтующие группы вынуждены объединиться перед лицом смертельной опасности. И, как потом выясняется, времени им отпущено совсем немного.

Качество: UHD BDRemux 2160p
Формат: MKV

Видео: HEVC, 50,9 Мбит/сек , 3840x2160, 23.976 Кадр/с
Аудио#1: DTS, 48.0 kHz, 6 ch, 768 kb/s, CBR (Russian) | MVO, Супербит, BD 4K |
Аудио#2: AC-3, 48.0 kHz, 6 ch, 448 kb/s, CBR (Russian) | MVO, Супербит |
Аудио#3: DTS MA, 48.0 kHz, 2 ch, 2 208 kb/s (Russian) | Дублированный "Ист-Вест" |
Аудио#4: DTS MA, 48.0 kHz, 8 ch, 6 008 kb/s (Russian) | MVO, Пифагор |
Аудио#5: DTS MA, 48.0 kHz, 8 ch, 6 009 kb/s (Russian) | MVO, Карусель |
Аудио#6: DTS, 48.0 kHz, 6 ch, 768 kb/s, CBR (Russian) | MVO, Universal |
Аудио#7: AC-3, 48.0 kHz, 6 ch, 640 kb/s, CBR (Russian) | MVO, Киномания |
Аудио#8: AC-3, 48.0 kHz, 2 ch, 192 kb/s, CBR (Russian) | MVO, НТВ |
Аудио#9: DTS MA, 48.0 kHz, 8 ch, 6 009 kb/s (Russian) | AVO, А.Дасевич |
Аудио#10: DTS MA, 48.0 kHz, 8 ch, 6 010 kb/s (Russian) | AVO, Е.Байков |
Аудио#11: DTS MA, 48.0 kHz, 8 ch, 6 014 kb/s (Russian) | AVO, Ю.Живов |
Аудио#12: DTS MA, 48.0 kHz, 8 ch, 6 010 kb/s (Russian) | AVO, А.Гаврилов |
Аудио#13: DTS MA, 48.0 kHz, 8 ch, 6 008 kb/s (Russian) | AVO, Неизвестный-1 |
Аудио#14: DTS MA, 48.0 kHz, 8 ch, 6 009 kb/s (Russian) | AVO, Неизвестный-2 |
Аудио#15: AC-3, 48.0 kHz, 2 ch, 192 kb/s, CBR (Russian) | AVO, С.Визгунов |
Аудио#16: AC-3, 48.0 kHz, 2 ch, 192 kb/s, CBR (Ukrainian) | VO, Україна |
Аудио#17: AC-3, 48.0 kHz, 2 ch, 192 kb/s, CBR (Ukrainian) | VO, Новий канал |
Аудио#18: AC-3, 48.0 kHz, 2 ch, 192 kb/s, CBR (Ukrainian) | VO, 1+1 / ICTV |
Аудио#19: DTS X / MA / Core, / 48.0 kHz / 48.0 kHz, Object Based / 8 / 6 ch, 6 168 kb/s / 6 168 kb/s / 1 509 kb/s, VBR / VBR / CBR (English)
скриншот  скриншот  скриншот  скриншот  скриншот  скриншот  

Общее
Уникальный идентификатор : 297511394429474435304976970293229280824 (0xDFD29C3EC56E16C4F80EE4F7A6AA5E38)
Полное имя : The.Lost.World.Jurassic.Park.1997.Lic.BDRemux.2160p.4K.UltraHD.HEVC.HDR.IVA(14xRUS.3xUKR.ENG).ExKinoRay.mkv
Формат : Matroska
Версия формата : Version 4 / Version 2
Размер файла : 99,7 Гбайт
Продолжительность : 2 ч. 8 м.
Общий поток : 111 Мбит/сек
Название фильма : Парк Юрского периода 2: Затерянный мир / The Lost World: Jurassic Park ( 1997 ) UHD BDRemux | HDR, 4K | IVA(14xRUS.3xUKR.ENG) | ExKinoRay
Дата кодирования : UTC 2018-05-23 19:06:06
Программа кодирования : mkvmerge v23.0.0 ('The Bride Said No') 64-bit
Библиотека кодирования : libebml v1.3.6 + libmatroska v1.4.9
Обложка : Yes
Attachments : cover

Видео
Идентификатор : 1
Формат : HEVC
Формат/Информация : High Efficiency Video Coding
Коммерческое название : HDR10
Профиль формата : Main [email protected]@High
Идентификатор кодека : V_MPEGH/ISO/HEVC
Продолжительность : 2 ч. 8 м.
Битрейт : 50,9 Мбит/сек
Ширина : 3840 пикселей
Высота : 2160 пикселей
Соотношение сторон : 16:9
Режим частоты кадров : Постоянный
Частота кадров : 23,976 (24000/1001) кадра/сек
Цветовое пространство : YUV
Субдискретизация насыщенности : 4:2:0 (Type 2)
Битовая глубина : 10 бит
Бит/(Пиксели*Кадры) : 0.256
Размер потока : 45,7 Гбайт (46%)
Заголовок : The.Lost.World.Jurassic.Park.1997.BDRemux.2160p.4K.UltraHD.HEVC.HDR
Библиотека кодирования : ATEME Titan File 3.8.14 (4.8.14.0)
Язык : English
Default : Да
Forced : Нет
Цветовой диапазон : Limited
Основные цвета : BT.2020
Характеристики трансфера : PQ
Коэффициенты матрицы : BT.2020 non-constant
MasteringDisplay_Luminance : min: 0.0050 cd/m2, max: 1000 cd/m2
MaxCLL : 929 cd/m2
MaxFALL : 129 cd/m2

Аудио #1
Идентификатор : 2
Формат : DTS
Формат/Информация : Digital Theater Systems
Идентификатор кодека : A_DTS
Продолжительность : 2 ч. 8 м.
Вид битрейта : Постоянный
Битрейт : 768 Кбит/сек
Каналы : 6 каналов
Расположение каналов : Front: L C R, Side: L R, LFE
Частота : 48,0 КГц
Частота кадров : 93,750 кадра/сек (512 SPF)
Битовая глубина : 24 бит
Метод сжатия : С потерями
Размер потока : 707 Мбайт (1%)
Заголовок : | MVO, Супербит, BD 4K |
Язык : Russian
Default : Да
Forced : Нет

Аудио #2
Идентификатор : 3
Формат : AC-3
Формат/Информация : Audio Coding 3
Идентификатор кодека : A_AC3
Продолжительность : 2 ч. 8 м.
Вид битрейта : Постоянный
Битрейт : 448 Кбит/сек
Каналы : 6 каналов
Расположение каналов : Front: L C R, Side: L R, LFE
Частота : 48,0 КГц
Частота кадров : 31,250 кадров/сек (1536 SPF)
Битовая глубина : 16 бит
Метод сжатия : С потерями
Размер потока : 412 Мбайт (0%)
Заголовок : | MVO, Супербит |
Язык : Russian
ServiceKind : Complete Main
Default : Нет
Forced : Нет

Аудио #3
Идентификатор : 4
Формат : DTS
Формат/Информация : Digital Theater Systems
Профиль формата : MA / Core
Идентификатор кодека : A_DTS
Продолжительность : 2 ч. 8 м.
Вид битрейта : Переменный / Постоянный
Битрейт : 2208 Кбит/сек / 1509 Кбит/сек
Каналы : 2 канала
Расположение каналов : Front: L R
Частота : 48,0 КГц
Частота кадров : 93,750 кадра/сек (512 SPF)
Битовая глубина : 24 бит
Метод сжатия : Без потерь / Lossy
Размер потока : 1,99 Гбайт (2%)
Заголовок : | Дублированный "Ист-Вест" |
Язык : Russian
Default : Нет
Forced : Нет

Аудио #4
Идентификатор : 5
Формат : DTS
Формат/Информация : Digital Theater Systems
Профиль формата : MA / Core
Идентификатор кодека : A_DTS
Продолжительность : 2 ч. 8 м.
Вид битрейта : Переменный / Постоянный
Битрейт : 6008 Кбит/сек / 1509 Кбит/сек
Каналы : 8 каналов / 6 каналов
Расположение каналов : Front: L C R, Side: L R, Back: L R, LFE / Front: L C R, Side: L R, LFE
Частота : 48,0 КГц
Частота кадров : 93,750 кадра/сек (512 SPF)
Битовая глубина : 24 бит
Метод сжатия : Без потерь / Lossy
Размер потока : 5,40 Гбайт (5%)
Заголовок : | MVO, Пифагор |
Язык : Russian
Default : Нет
Forced : Нет

Аудио #5
Идентификатор : 6
Формат : DTS
Формат/Информация : Digital Theater Systems
Профиль формата : MA / Core
Идентификатор кодека : A_DTS
Продолжительность : 2 ч. 8 м.
Вид битрейта : Переменный / Постоянный
Битрейт : 6009 Кбит/сек / 1509 Кбит/сек
Каналы : 8 каналов / 6 каналов
Расположение каналов : Front: L C R, Side: L R, Back: L R, LFE / Front: L C R, Side: L R, LFE
Частота : 48,0 КГц
Частота кадров : 93,750 кадра/сек (512 SPF)
Битовая глубина : 24 бит
Метод сжатия : Без потерь / Lossy
Размер потока : 5,40 Гбайт (5%)
Заголовок : | MVO, Карусель |
Язык : Russian
Default : Нет
Forced : Нет

Аудио #6
Идентификатор : 7
Формат : DTS
Формат/Информация : Digital Theater Systems
Идентификатор кодека : A_DTS
Продолжительность : 2 ч. 8 м.
Вид битрейта : Постоянный
Битрейт : 768 Кбит/сек
Каналы : 6 каналов
Расположение каналов : Front: L C R, Side: L R, LFE
Частота : 48,0 КГц
Частота кадров : 93,750 кадра/сек (512 SPF)
Битовая глубина : 24 бит
Метод сжатия : С потерями
Размер потока : 707 Мбайт (1%)
Заголовок : | MVO, Universal |
Язык : Russian
Default : Нет
Forced : Нет

Аудио #7
Идентификатор : 8
Формат : AC-3
Формат/Информация : Audio Coding 3
Идентификатор кодека : A_AC3
Продолжительность : 2 ч. 8 м.
Вид битрейта : Постоянный
Битрейт : 640 Кбит/сек
Каналы : 6 каналов
Расположение каналов : Front: L C R, Side: L R, LFE
Частота : 48,0 КГц
Частота кадров : 31,250 кадров/сек (1536 SPF)
Битовая глубина : 16 бит
Метод сжатия : С потерями
Размер потока : 589 Мбайт (1%)
Заголовок : | MVO, Киномания |
Язык : Russian
ServiceKind : Complete Main
Default : Нет
Forced : Нет

Аудио #8
Идентификатор : 9
Формат : AC-3
Формат/Информация : Audio Coding 3
Идентификатор кодека : A_AC3
Продолжительность : 2 ч. 8 м.
Вид битрейта : Постоянный
Битрейт : 192 Кбит/сек
Каналы : 2 канала
Расположение каналов : Front: L R
Частота : 48,0 КГц
Частота кадров : 31,250 кадров/сек (1536 SPF)
Битовая глубина : 16 бит
Метод сжатия : С потерями
Размер потока : 177 Мбайт (0%)
Заголовок : | MVO, НТВ |
Язык : Russian
ServiceKind : Complete Main
Default : Нет
Forced : Нет

Аудио #9
Идентификатор : 10
Формат : DTS
Формат/Информация : Digital Theater Systems
Профиль формата : MA / Core
Идентификатор кодека : A_DTS
Продолжительность : 2 ч. 8 м.
Вид битрейта : Переменный / Постоянный
Битрейт : 6009 Кбит/сек / 1509 Кбит/сек
Каналы : 8 каналов / 6 каналов
Расположение каналов : Front: L C R, Side: L R, Back: L R, LFE / Front: L C R, Side: L R, LFE
Частота : 48,0 КГц
Частота кадров : 93,750 кадра/сек (512 SPF)
Битовая глубина : 24 бит
Метод сжатия : Без потерь / Lossy
Размер потока : 5,40 Гбайт (5%)
Заголовок : | AVO, А.Дасевич |
Язык : Russian
Default : Нет
Forced : Нет

Аудио #10
Идентификатор : 11
Формат : DTS
Формат/Информация : Digital Theater Systems
Профиль формата : MA / Core
Идентификатор кодека : A_DTS
Продолжительность : 2 ч. 8 м.
Вид битрейта : Переменный / Постоянный
Битрейт : 6010 Кбит/сек / 1509 Кбит/сек
Каналы : 8 каналов / 6 каналов
Расположение каналов : Front: L C R, Side: L R, Back: L R, LFE / Front: L C R, Side: L R, LFE
Частота : 48,0 КГц
Частота кадров : 93,750 кадра/сек (512 SPF)
Битовая глубина : 24 бит
Метод сжатия : Без потерь / Lossy
Размер потока : 5,40 Гбайт (5%)
Заголовок : | AVO, Е.Байков |
Язык : Russian
Default : Нет
Forced : Нет

Аудио #11
Идентификатор : 12
Формат : DTS
Формат/Информация : Digital Theater Systems
Профиль формата : MA / Core
Идентификатор кодека : A_DTS
Продолжительность : 2 ч. 8 м.
Вид битрейта : Переменный / Постоянный
Битрейт : 6014 Кбит/сек / 1509 Кбит/сек
Каналы : 8 каналов / 6 каналов
Расположение каналов : Front: L C R, Side: L R, Back: L R, LFE / Front: L C R, Side: L R, LFE
Частота : 48,0 КГц
Частота кадров : 93,750 кадра/сек (512 SPF)
Битовая глубина : 24 бит
Метод сжатия : Без потерь / Lossy
Размер потока : 5,41 Гбайт (5%)
Заголовок : | AVO, Ю.Живов |
Язык : Russian
Default : Нет
Forced : Нет

Аудио #12
Идентификатор : 13
Формат : DTS
Формат/Информация : Digital Theater Systems
Профиль формата : MA / Core
Идентификатор кодека : A_DTS
Продолжительность : 2 ч. 8 м.
Вид битрейта : Переменный / Постоянный
Битрейт : 6010 Кбит/сек / 1509 Кбит/сек
Каналы : 8 каналов / 6 каналов
Расположение каналов : Front: L C R, Side: L R, Back: L R, LFE / Front: L C R, Side: L R, LFE
Частота : 48,0 КГц
Частота кадров : 93,750 кадра/сек (512 SPF)
Битовая глубина : 24 бит
Метод сжатия : Без потерь / Lossy
Размер потока : 5,40 Гбайт (5%)
Заголовок : | AVO, А.Гаврилов |
Язык : Russian
Default : Нет
Forced : Нет

Аудио #13
Идентификатор : 14
Формат : DTS
Формат/Информация : Digital Theater Systems
Профиль формата : MA / Core
Идентификатор кодека : A_DTS
Продолжительность : 2 ч. 8 м.
Вид битрейта : Переменный / Постоянный
Битрейт : 6008 Кбит/сек / 1509 Кбит/сек
Каналы : 8 каналов / 6 каналов
Расположение каналов : Front: L C R, Side: L R, Back: L R, LFE / Front: L C R, Side: L R, LFE
Частота : 48,0 КГц
Частота кадров : 93,750 кадра/сек (512 SPF)
Битовая глубина : 24 бит
Метод сжатия : Без потерь / Lossy
Размер потока : 5,40 Гбайт (5%)
Заголовок : | AVO, Неизвестный-1 |
Язык : Russian
Default : Нет
Forced : Нет

Аудио #14
Идентификатор : 15
Формат : DTS
Формат/Информация : Digital Theater Systems
Профиль формата : MA / Core
Идентификатор кодека : A_DTS
Продолжительность : 2 ч. 8 м.
Вид битрейта : Переменный / Постоянный
Битрейт : 6009 Кбит/сек / 1509 Кбит/сек
Каналы : 8 каналов / 6 каналов
Расположение каналов : Front: L C R, Side: L R, Back: L R, LFE / Front: L C R, Side: L R, LFE
Частота : 48,0 КГц
Частота кадров : 93,750 кадра/сек (512 SPF)
Битовая глубина : 24 бит
Метод сжатия : Без потерь / Lossy
Размер потока : 5,40 Гбайт (5%)
Заголовок : | AVO, Неизвестный-2 |
Язык : Russian
Default : Нет
Forced : Нет

Аудио #15
Идентификатор : 16
Формат : AC-3
Формат/Информация : Audio Coding 3
Идентификатор кодека : A_AC3
Продолжительность : 2 ч. 8 м.
Вид битрейта : Постоянный
Битрейт : 192 Кбит/сек
Каналы : 2 канала
Расположение каналов : Front: L R
Частота : 48,0 КГц
Частота кадров : 31,250 кадров/сек (1536 SPF)
Битовая глубина : 16 бит
Метод сжатия : С потерями
Размер потока : 177 Мбайт (0%)
Заголовок : | AVO, С.Визгунов |
Язык : Russian
ServiceKind : Complete Main
Default : Нет
Forced : Нет

Аудио #16
Идентификатор : 17
Формат : AC-3
Формат/Информация : Audio Coding 3
Идентификатор кодека : A_AC3
Продолжительность : 2 ч. 8 м.
Вид битрейта : Постоянный
Битрейт : 192 Кбит/сек
Каналы : 2 канала
Расположение каналов : Front: L R
Частота : 48,0 КГц
Частота кадров : 31,250 кадров/сек (1536 SPF)
Битовая глубина : 16 бит
Метод сжатия : С потерями
Размер потока : 177 Мбайт (0%)
Заголовок : | VO, Україна |
Язык : Ukrainian
ServiceKind : Complete Main
Default : Нет
Forced : Нет

Аудио #17
Идентификатор : 18
Формат : AC-3
Формат/Информация : Audio Coding 3
Идентификатор кодека : A_AC3
Продолжительность : 2 ч. 8 м.
Вид битрейта : Постоянный
Битрейт : 192 Кбит/сек
Каналы : 2 канала
Расположение каналов : Front: L R
Частота : 48,0 КГц
Частота кадров : 31,250 кадров/сек (1536 SPF)
Битовая глубина : 16 бит
Метод сжатия : С потерями
Размер потока : 177 Мбайт (0%)
Заголовок : | VO, Новий канал |
Язык : Ukrainian
ServiceKind : Complete Main
Default : Нет
Forced : Нет

Аудио #18
Идентификатор : 19
Формат : AC-3
Формат/Информация : Audio Coding 3
Идентификатор кодека : A_AC3
Продолжительность : 2 ч. 8 м.
Вид битрейта : Постоянный
Битрейт : 192 Кбит/сек
Каналы : 2 канала
Расположение каналов : Front: L R
Частота : 48,0 КГц
Частота кадров : 31,250 кадров/сек (1536 SPF)
Битовая глубина : 16 бит
Метод сжатия : С потерями
Размер потока : 177 Мбайт (0%)
Заголовок : | VO, 1+1 / ICTV |
Язык : Ukrainian
ServiceKind : Complete Main
Default : Нет
Forced : Нет

Аудио #19
Идентификатор : 20
Формат : DTS
Формат/Информация : Digital Theater Systems
Профиль формата : X / MA / Core
Идентификатор кодека : A_DTS
Продолжительность : 2 ч. 8 м.
Вид битрейта : Переменный / Переменный / Постоянный
Битрейт : 6168 Кбит/сек / 6168 Кбит/сек / 1509 Кбит/сек
Каналы : Object Based / 8 каналов / 6 каналов
Расположение каналов : Object Based / Front: L C R, Side: L R, Back: L R, LFE / Front: L C R, Side: L R, LFE
Частота : / 48,0 КГц / 48,0 КГц
Частота кадров : 93,750 кадра/сек (512 SPF)
Битовая глубина : / 24 бит / 24 бит
Метод сжатия : / Lossless / Lossy
Размер потока : 5,54 Гбайт (6%)
Заголовок : | Original |
Язык : English
Default : Нет
Forced : Нет

Текст #1
Идентификатор : 21
Формат : UTF-8
Идентификатор кодека : S_TEXT/UTF8
Идентификатор кодека/Информация : UTF-8 Plain Text
Продолжительность : 2 ч. 0 м.
Битрейт : 84 бит/сек
ElementCount : 1055
Размер потока : 74,7 Кбайт (0%)
Заголовок : Full v1
Язык : Russian
Default : Нет
Forced : Нет

Текст #2
Идентификатор : 22
Формат : UTF-8
Идентификатор кодека : S_TEXT/UTF8
Идентификатор кодека/Информация : UTF-8 Plain Text
Продолжительность : 1 ч. 59 м.
Битрейт : 80 бит/сек
ElementCount : 1095
Размер потока : 70,5 Кбайт (0%)
Заголовок : Full v2
Язык : Russian
Default : Нет
Forced : Нет

Текст #3
Идентификатор : 23
Формат : UTF-8
Идентификатор кодека : S_TEXT/UTF8
Идентификатор кодека/Информация : UTF-8 Plain Text
Продолжительность : 2 ч. 1 м.
Битрейт : 94 бит/сек
ElementCount : 1487
Размер потока : 84,1 Кбайт (0%)
Заголовок : SDH
Язык : Russian
Default : Нет
Forced : Нет

Текст #4
Идентификатор : 24
Формат : UTF-8
Идентификатор кодека : S_TEXT/UTF8
Идентификатор кодека/Информация : UTF-8 Plain Text
Продолжительность : 1 ч. 59 м.
Битрейт : 44 бит/сек
ElementCount : 1203
Размер потока : 39,4 Кбайт (0%)
Заголовок : Full
Язык : English
Default : Нет
Forced : Нет

Текст #5
Идентификатор : 25
Формат : UTF-8
Идентификатор кодека : S_TEXT/UTF8
Идентификатор кодека/Информация : UTF-8 Plain Text
Продолжительность : 2 ч. 1 м.
Битрейт : 51 бит/сек
ElementCount : 1433
Размер потока : 45,9 Кбайт (0%)
Заголовок : SDH
Язык : English
Default : Нет
Forced : Нет

Меню
00:00:00.000 : en:Chapter 1
00:04:13.586 : en:Chapter 2
00:08:38.309 : en:Chapter 3
00:16:11.929 : en:Chapter 4
00:21:43.135 : en:Chapter 5
00:33:22.458 : en:Chapter 6
00:41:48.797 : en:Chapter 7
00:47:58.000 : en:Chapter 8
00:53:40.592 : en:Chapter 9
01:04:46.674 : en:Chapter 10
01:12:59.708 : en:Chapter 11
01:20:47.884 : en:Chapter 12
01:26:18.965 : en:Chapter 13
01:31:53.382 : en:Chapter 14
01:42:23.637 : en:Chapter 15
01:50:52.520 : en:Chapter 16
01:52:13.935 : en:Chapter 17
01:58:10.875 : en:Chapter 18
01:59:51.601 : en:Chapter 19
02:01:56.434 : en:Chapter 20




Скачать Парк Юрского периода 2: Затерянный мир через торрент https://d.radikal.ru/d00/1805/b9/c5f37dc2520b.jpg Скачать, смотреть онлайн Парк Юрского периода 2: Затерянный мир бесплантно в хорошем качестве Описание: Фильм снят по мотивам романа Майкла Крайтона «Затерянный мир». События этого фильма разворачиваются через четыре года после того, ... 8.6 10 5
Info! Золотая раздача, скачанное не засчитывается.
Торрент: Зарегистрирован [2018-05-24 01:47] · скачан: 21 раз
Статус: √ проверено
Размер: 99.71 GB
Как cкачать? Как скачать Парк Юрского периода 2: Затерянный мир через торрент | UTorrent

% Раздел Тема Автор DL S | L
Фильмы (HD 720p, 1080p) (48-60 fps) [ 5.77 GB ] Парк Юрского периода 2: Затерянный мир / The Lost World: Jurassic Park | | 720p / 60 FPS slaventi-69 Скачать
1 | 0
Ultra HD (UHD: 2K, 4K, 8K) [ 32.87 GB ] Парк Юрского периода 2: Затерянный мир / Lost World: Jurassic Park, The | MVO + 5xAVO | 2160p sheker187 Скачать
1 | 0
Ultra HD (UHD: 2K, 4K, 8K) [ 58.52 GB ] Парк Юрского периода 2: Затерянный мир / Lost World: Jurassic Park, The | Дубляж | 2160p sheker187 Скачать
1 | 0
Фильмы (DVD фильмы) [ 4.37 GB ] Парк Юрского периода 2: Затерянный мир / Lost World: Jurassic Park, The | | Парк Юрского периода 2: Затерянный мир / Lost World: Jurassic Park, The (Стивен Спилберг amv77 Скачать
1 | 0

28-11-2019 20:33  


Отключить вcю реклaмy на сайте, в т.ч. и в плеере онлайн просмотра!

    Дорогой пользователь! Огромная просьба, поблагодарите релизера, оцените раздачу и оставьте свои комментарий, если Вы скачали Парк Юрского периода 2: Затерянный мир через торрент бесплатно!!
    Комментировать посты могут только пользователи прошедшие не сложную регистрацию
    Показать сообщения:    


    Парк Юрского периода 2: Затерянный мир через торрент
    Скачать бесплатно Парк Юрского периода 2: Затерянный мир
    Парк Юрского периода 2: Затерянный мир скачать торрент
    Парк Юрского периода 2: Затерянный мир смотреть онлайн
    Cкачать фильм Парк Юрского периода 2: Затерянный мир бесплатно
    Парк Юрского периода 2: Затерянный мир скачать торрент в хорошем качестве
    Парк Юрского периода 2: Затерянный мир смотреть онлайн бесплатно в хорошем качестве
    Вы не можете начинать темы
    Вы не можете отвечать на сообщения
    Вы не можете редактировать свои сообщения
    Вы не можете удалять свои сообщения
    Вы не можете голосовать в опросах
    Вы не можете прикреплять файлы к сообщениям
    Вы можете скачивать файлы
    Парк Юрского периода 2: Затерянный мир / The Lost World: Jurassic Park [1997, Фантастика, боевик, триллер, приключения, UHD BDRemux 2160p] 7xMVO+Дубляж+7xAVO+3xVO смотреть онлайн, скачать торрент picoco.icu