Достать ножи: Стеклянная луковица

MVO

Добыча

Дубляж

Уэнсдэй

1 сезон

Тор

Дубляж

13 клиническая

1 сезон

Жестокая ночь

MVO

Одни из нас

1 сезон

Deluxe

pack

Рекомендуем

30

Пиратка

ВАЖНО

ВАЖНО

Ghostwire

Пиратка

jed

RePack

nioh2

RePack

RDR2

RePack

NEED FOR SPEED™ PAYBACK

RePack

скачать торрент

Кинопоиск HD

Острые козырьки 6 сезон

6 сезон

FAR CRY 6

RePack

скачать торрент

Лицензия

скачать торрент

MVO

1

1 сезон

скачать торрент

1 сезон

скачать торрент

Лицензия

  

Человек из стали / Man of Steel (Зак Снайдер) [2013, фантастика, фэнтези, боевик, UHD BDRemux 2160p] Дубляж (rus, ukr) + 2xAVO

Человек из стали через торрент 5050.piratbit.fun

Размер: 82.77 GB | Добавлен: 4 года 8 мес. назад | Торрент скачан:75 раз
Смотреть онлайн | Скачать | Поддержите нас   

24-05-2018 02:21 Человек из стали Скачать торрент  

Человек из стали / Man of Steel

Год выпуска: 2013
Страна: США, Канада, Великобритания
Жанр: фантастика, фэнтези, боевик, приключения
Продолжительность: 02:22:59
Перевод: Дублированный, авторский
Субтитры: Russian (Forced, full), Ukrainian (full), English (full)
Режиссер: Зак Снайдер
В ролях:

Генри Кавилл (Clark Kent / Kal-El), Эми Адамс (Lois Lane), Майкл Шеннон (General Zod), Рассел Кроу (Jor-El), Дайан Лэйн (Martha Kent), Кевин Костнер (Jonathan Kent), Антье Трауэ (Faora-Ul), Лоренс Фишбёрн (Perry White), Кристофер Мелони (Colonel Nathan Hardy), Гарри Дж. Ленникс (General Swanwick), Ричард Шифф (Dr. Emil Hamilton), Айелет Зурер (Lara Lor-Van)
Описание:
Кларк Кент/Кал-Эл - молодой человек, который чувствует себя чужаком из-за своей невероятной силы. Много лет назад он был отправлен на Землю с развитой планеты Криптон, и теперь задается вопросом: зачем?
Рейтинг:

MPAA: PG-13 - Детям до 13 лет просмотр не желателен
Качество: UHD BDRemux 2160p
Формат: MKV
Видео: HEVC, HDR, 56183 Кбит/с, 3840x2160
Аудио #1: AC-3, 48.0 kHz, 6 ch, 640 kb/s, CBR (Russian) | Дублированный, 4К |
Аудио #2: DTS MA / Core, 48.0 kHz, 8 / 6 ch, 5 421 kb/s / 1 509 kb/s, VBR / CBR (Russian) | Дублированный |
Аудио #3: DTS MA / Core, 48.0 kHz, 8 / 6 ch, 5 426 kb/s / 1 509 kb/s, VBR / CBR (Russian) | AVO, Ю. Сербин |
Аудио #4: DTS MA / Core, 48.0 kHz, 8 / 6 ch, 5 413 kb/s / 1 509 kb/s, VBR / CBR (Russian) | AVO, А. Гаврилов |
Аудио #5: AC-3, 48.0 kHz, 6 ch, 384 kb/s, CBR (Ukrainian) | Дублированный, Postmodern |
Аудио #6: DTS MA / Core, 48.0 kHz, 8 / 6 ch, 5 444 kb/s / 1 509 kb/s, VBR / CBR (English)
Аудио #7: TrueHD TrueHD+Atmos / TrueHD, / 48.0 kHz, Object Based / 8 ch, 5 428 kb/s, VBR (English)
Аудио #8: AC-3, 48.0 kHz, 6 ch, 448 kb/s, CBR (English)
Аудио #9: AC-3, 48.0 kHz, 6 ch, 640 kb/s, CBR (English) | Audiodescription |
Навигация по главам: Есть
Общее
Уникальный идентификатор : 264348772783146606480210630987944289754 (0xC6DFB8C3118457248BC69553C35BE5DA)
Полное имя : Man.of.Steel.2013.Lic.BDRemux.2160p.4K.UltraHD.HEVC.HDR.IVA(3xRUS.UKR.ENG).ExKinoRay.mkv
Формат : Matroska
Версия формата : Version 4 / Version 2
Размер файла : 82,8 Гбайт
Продолжительность : 2 ч. 23 м.
Режим общего битрейта : Переменный
Общий поток : 82,8 Мбит/сек
Название фильма : Человек из стали / Man of Steel ( 2013 ) UHD BDRemux | HDR, 4K | IVA(3xRUS.UKR.ENG) | ExKinoRay
Дата кодирования : UTC 2018-05-24 00:43:45
Программа кодирования : mkvmerge v23.0.0 ('The Bride Said No') 64-bit
Библиотека кодирования : libebml v1.3.6 + libmatroska v1.4.9
Обложка : Yes
Attachments : cover

Видео
Идентификатор : 1
Формат : HEVC
Формат/Информация : High Efficiency Video Coding
Коммерческое название : HDR10
Профиль формата : Main [email protected]@High
Идентификатор кодека : V_MPEGH/ISO/HEVC
Продолжительность : 2 ч. 22 м.
Битрейт : 53,5 Мбит/сек
Ширина : 3840 пикселей
Высота : 2160 пикселей
Соотношение сторон : 16:9
Режим частоты кадров : Постоянный
Частота кадров : 23,976 (24000/1001) кадра/сек
Цветовое пространство : YUV
Субдискретизация насыщенности : 4:2:0 (Type 2)
Битовая глубина : 10 бит
Бит/(Пиксели*Кадры) : 0.269
Размер потока : 53,5 Гбайт (65%)
Язык : English
Default : Да
Forced : Нет
Цветовой диапазон : Limited
Основные цвета : BT.2020
Характеристики трансфера : PQ
Коэффициенты матрицы : BT.2020 non-constant
MasteringDisplay_Luminance : min: 0.0050 cd/m2, max: 4000 cd/m2
MaxCLL : 7770 cd/m2
MaxFALL : 1468 cd/m2

Аудио #1
Идентификатор : 2
Формат : AC-3
Формат/Информация : Audio Coding 3
Идентификатор кодека : A_AC3
Продолжительность : 2 ч. 22 м.
Вид битрейта : Постоянный
Битрейт : 640 Кбит/сек
Каналы : 6 каналов
Расположение каналов : Front: L C R, Side: L R, LFE
Частота : 48,0 КГц
Частота кадров : 31,250 кадров/сек (1536 SPF)
Битовая глубина : 16 бит
Метод сжатия : С потерями
Задержка видео : 23 мс.
Размер потока : 655 Мбайт (1%)
Заголовок : | Дублированный, 4К |
Язык : Russian
ServiceKind/String : Complete Main
Default : Да
Forced : Нет

Аудио #2
Идентификатор : 3
Формат : DTS
Формат/Информация : Digital Theater Systems
Профиль формата : MA / Core
Идентификатор кодека : A_DTS
Продолжительность : 2 ч. 23 м.
Вид битрейта : Переменный / Постоянный
Битрейт : 5421 Кбит/сек / 1509 Кбит/сек
Каналы : 8 каналов / 6 каналов
Расположение каналов : Front: L C R, Side: L R, Back: L R, LFE / Front: L C R, Side: L R, LFE
Частота : 48,0 КГц
Частота кадров : 93,750 кадра/сек (512 SPF)
Битовая глубина : 24 бит
Метод сжатия : Без потерь / Lossy
Размер потока : 5,42 Гбайт (7%)
Заголовок : | Дублированный |
Язык : Russian
Default : Нет
Forced : Нет

Аудио #3
Идентификатор : 4
Формат : DTS
Формат/Информация : Digital Theater Systems
Профиль формата : MA / Core
Идентификатор кодека : A_DTS
Продолжительность : 2 ч. 23 м.
Вид битрейта : Переменный / Постоянный
Битрейт : 5426 Кбит/сек / 1509 Кбит/сек
Каналы : 8 каналов / 6 каналов
Расположение каналов : Front: L C R, Side: L R, Back: L R, LFE / Front: L C R, Side: L R, LFE
Частота : 48,0 КГц
Частота кадров : 93,750 кадра/сек (512 SPF)
Битовая глубина : 24 бит
Метод сжатия : Без потерь / Lossy
Размер потока : 5,42 Гбайт (7%)
Заголовок : | AVO, Ю. Сербин |
Язык : Russian
Default : Нет
Forced : Нет

Аудио #4
Идентификатор : 5
Формат : DTS
Формат/Информация : Digital Theater Systems
Профиль формата : MA / Core
Идентификатор кодека : A_DTS
Продолжительность : 2 ч. 23 м.
Вид битрейта : Переменный / Постоянный
Битрейт : 5413 Кбит/сек / 1509 Кбит/сек
Каналы : 8 каналов / 6 каналов
Расположение каналов : Front: L C R, Side: L R, Back: L R, LFE / Front: L C R, Side: L R, LFE
Частота : 48,0 КГц
Частота кадров : 93,750 кадра/сек (512 SPF)
Битовая глубина : 24 бит
Метод сжатия : Без потерь / Lossy
Размер потока : 5,41 Гбайт (7%)
Заголовок : | AVO, А. Гаврилов |
Язык : Russian
Default : Нет
Forced : Нет

Аудио #5
Идентификатор : 6
Формат : AC-3
Формат/Информация : Audio Coding 3
Идентификатор кодека : A_AC3
Продолжительность : 2 ч. 23 м.
Вид битрейта : Постоянный
Битрейт : 384 Кбит/сек
Каналы : 6 каналов
Расположение каналов : Front: L C R, Side: L R, LFE
Частота : 48,0 КГц
Частота кадров : 31,250 кадров/сек (1536 SPF)
Битовая глубина : 16 бит
Метод сжатия : С потерями
Размер потока : 393 Мбайт (0%)
Заголовок : | Дублированный, Postmodern |
Язык : Ukrainian
ServiceKind/String : Complete Main
Default : Нет
Forced : Нет

Аудио #6
Идентификатор : 7
Формат : DTS
Формат/Информация : Digital Theater Systems
Профиль формата : MA / Core
Идентификатор кодека : A_DTS
Продолжительность : 2 ч. 23 м.
Вид битрейта : Переменный / Постоянный
Битрейт : 5444 Кбит/сек / 1509 Кбит/сек
Каналы : 8 каналов / 6 каналов
Расположение каналов : Front: L C R, Side: L R, Back: L R, LFE / Front: L C R, Side: L R, LFE
Частота : 48,0 КГц
Частота кадров : 93,750 кадра/сек (512 SPF)
Битовая глубина : 24 бит
Метод сжатия : Без потерь / Lossy
Размер потока : 5,44 Гбайт (7%)
Заголовок : | Original, DTS MA |
Язык : English
Default : Нет
Forced : Нет

Аудио #7
Идентификатор : 8
Формат : TrueHD
Профиль формата : TrueHD+Atmos / TrueHD
Идентификатор кодека : A_TRUEHD
Продолжительность : 2 ч. 22 м.
Вид битрейта : Переменный
Битрейт : 5428 Кбит/сек
Максимальный битрейт : 8757 Кбит/сек
Каналы : Object Based / 8 каналов
Расположение каналов : Object Based / Front: L C R, Side: L R, Back: L R, LFE
Частота : / 48,0 КГц
Частота кадров : 1200,000 кадров/сек (40 SPF)
Метод сжатия : Без потерь
Задержка видео : 1 мс.
Размер потока : 5,42 Гбайт (7%)
Заголовок : | Original, Atmos |
Язык : English
Default : Нет
Forced : Нет

Аудио #8
Идентификатор : 9
Формат : AC-3
Формат/Информация : Audio Coding 3
Идентификатор кодека : A_AC3
Продолжительность : 2 ч. 22 м.
Вид битрейта : Постоянный
Битрейт : 448 Кбит/сек
Каналы : 6 каналов
Расположение каналов : Front: L C R, Side: L R, LFE
Частота : 48,0 КГц
Частота кадров : 31,250 кадров/сек (1536 SPF)
Битовая глубина : 16 бит
Метод сжатия : С потерями
Задержка видео : 1 мс.
Размер потока : 458 Мбайт (1%)
Заголовок : | Original, AC3 Core |
Язык : English
ServiceKind/String : Complete Main
Default : Нет
Forced : Нет

Аудио #9
Идентификатор : 10
Формат : AC-3
Формат/Информация : Audio Coding 3
Идентификатор кодека : A_AC3
Продолжительность : 2 ч. 22 м.
Вид битрейта : Постоянный
Битрейт : 640 Кбит/сек
Каналы : 6 каналов
Расположение каналов : Front: L C R, Side: L R, LFE
Частота : 48,0 КГц
Частота кадров : 31,250 кадров/сек (1536 SPF)
Битовая глубина : 16 бит
Метод сжатия : С потерями
Задержка видео : 23 мс.
Размер потока : 655 Мбайт (1%)
Заголовок : | Audiodescription |
Язык : English
ServiceKind/String : Complete Main
Default : Нет
Forced : Нет

Текст #1
Идентификатор : 11
Формат : UTF-8
Идентификатор кодека : S_TEXT/UTF8
Идентификатор кодека/Информация : UTF-8 Plain Text
Продолжительность : 9 м. 12 с.
Битрейт : 3 бит/сек
ElementCount : 5
Размер потока : 216 байт (0%)
Заголовок : Forced
Язык : Russian
Default : Да
Forced : Да

Текст #2
Идентификатор : 12
Формат : UTF-8
Идентификатор кодека : S_TEXT/UTF8
Идентификатор кодека/Информация : UTF-8 Plain Text
Продолжительность : 2 ч. 11 м.
Битрейт : 56 бит/сек
ElementCount : 1245
Размер потока : 54,6 Кбайт (0%)
Заголовок : Full
Язык : Russian
Default : Нет
Forced : Нет

Текст #3
Идентификатор : 13
Формат : UTF-8
Идентификатор кодека : S_TEXT/UTF8
Идентификатор кодека/Информация : UTF-8 Plain Text
Продолжительность : 2 ч. 11 м.
Битрейт : 58 бит/сек
ElementCount : 1262
Размер потока : 56,2 Кбайт (0%)
Заголовок : Full
Язык : Ukrainian
Default : Нет
Forced : Нет

Текст #4
Идентификатор : 14
Формат : UTF-8
Идентификатор кодека : S_TEXT/UTF8
Идентификатор кодека/Информация : UTF-8 Plain Text
Продолжительность : 2 ч. 11 м.
Битрейт : 41 бит/сек
ElementCount : 1292
Размер потока : 40,0 Кбайт (0%)
Заголовок : Full
Язык : English
Default : Нет
Forced : Нет

Меню
00:00:00.000 : en:Chapter 1
00:11:15.966 : en:Chapter 2
00:20:00.449 : en:Chapter 3
00:30:08.473 : en:Chapter 4
00:39:20.608 : en:Chapter 5
00:48:56.642 : en:Chapter 6
00:59:02.413 : en:Chapter 7
01:08:56.882 : en:Chapter 8
01:17:34.107 : en:Chapter 9
01:28:35.184 : en:Chapter 10
01:40:46.790 : en:Chapter 11
01:50:54.856 : en:Chapter 12
02:00:52.578 : en:Chapter 13
02:10:12.554 : en:Chapter 14
02:12:48.919 : en:Chapter 15



Скачать Человек из стали через торрент https://c.radikal.ru/c20/1903/bb/89b4d5bda07c.png Скачать, смотреть онлайн Человек из стали бесплантно в хорошем качестве Описание: Кларк Кент/Кал-Эл - молодой человек, который чувствует себя чужаком из-за своей невероятной силы. Много лет назад он был ... 10 10 7
Info! Золотая раздача, скачанное не засчитывается.
Торрент: Зарегистрирован [2018-05-24 02:21] · скачан: 75 раз
Статус: √ проверено
Размер: 82.77 GB
Как cкачать? Как скачать Человек из стали через торрент | UTorrent

% Раздел Тема Автор DL S | L
Фильмы (Blu-ray, BD-Remux, HDDVD) [ 42.59 GB ] Человек из стали / Man of Steel | Лицензия | BD Remux 1080p bober100 Скачать
1 | 0

28-11-2019 20:33  


Отключить вcю реклaмy на сайте, в т.ч. и в плеере онлайн просмотра!

    Дорогой пользователь! Огромная просьба, поблагодарите релизера, оцените раздачу и оставьте свои комментарий, если Вы скачали Человек из стали через торрент бесплатно!!
    Комментировать посты могут только пользователи прошедшие не сложную регистрацию
    Показать сообщения:    


    Человек из стали через торрент
    Скачать бесплатно Человек из стали
    Человек из стали скачать торрент
    Человек из стали смотреть онлайн
    Cкачать фильм Человек из стали бесплатно
    Человек из стали скачать торрент в хорошем качестве
    Человек из стали смотреть онлайн бесплатно в хорошем качестве
    Вы не можете начинать темы
    Вы не можете отвечать на сообщения
    Вы не можете редактировать свои сообщения
    Вы не можете удалять свои сообщения
    Вы не можете голосовать в опросах
    Вы не можете прикреплять файлы к сообщениям
    Вы можете скачивать файлы
    Человек из стали / Man of Steel [2013, фантастика, фэнтези, боевик, UHD BDRemux 2160p] Дубляж + 2xAVO смотреть онлайн, скачать торрент picoco.icu