Достать ножи: Стеклянная луковица

MVO

Добыча

Дубляж

Уэнсдэй

1 сезон

Тор

Дубляж

13 клиническая

1 сезон

Жестокая ночь

MVO

Одни из нас

1 сезон

Deluxe

pack

Рекомендуем

30

Пиратка

ВАЖНО

ВАЖНО

Ghostwire

Пиратка

jed

RePack

nioh2

RePack

RDR2

RePack

NEED FOR SPEED™ PAYBACK

RePack

скачать торрент

Кинопоиск HD

Острые козырьки 6 сезон

6 сезон

FAR CRY 6

RePack

скачать торрент

Лицензия

скачать торрент

MVO

1

1 сезон

скачать торрент

1 сезон

скачать торрент

Лицензия

  

Парк Юрского периода 3 / Jurassic Park III (Джо Джонстон) [2001, Фантастика, триллер, приключения, UHD BDRemux 2160p] Дубляж+4xAVO+DVO (ukr) + MVO (rus, ukr)

Парк Юрского периода 3 через торрент 5050.piratbit.fun

Размер: 57.57 GB | Добавлен: 4 года 8 мес. назад | Торрент скачан:14 раз
Смотреть онлайн | Скачать | Поддержите нас   

25-05-2018 01:21 Парк Юрского периода 3 Скачать торрент  

Парк Юрского периода 3 / Jurassic Park III
Год выпуска: 2001
Страна: США
Жанр: Фантастика, триллер, приключения
Продолжительность: 01:32:11
Перевод: Профессиональный (многоголосый), Дублированный, Авторский
Субтитры: Русские, английские

Режиссер: Джо Джонстон

rating

В ролях:


Сэм Нил (Dr. Alan Grant), Уильям Х. Мэйси (Paul Kirby), Теа Леони (Amanda Kirby), Алессандро Нивола (Billy Brennan), Тревор Морган (Eric Kirby), Майкл Джитер (Udesky), Джон Дил (Cooper), Брюс А. Янг (Nash), Лора Дерн (Ellie), Тейлор Николс (Mark), Марк Харелик (Ben Hildebrand), Хулио Оскар Мечосо (Enrique Cardoso)
Описание:

Герой Сэма Нила, палеонтолог Алан Грант, принимает предложение состоятельного предпринимателя совершить обзорную экскурсию над печально знаменитым островом Сорна на специально нанятом самолете. Мог ли доктор Грант предполагать, что страшная, непредвиденная катастрофа снова заставит его столкнуться со свирепыми плотоядными существами из прошлого?! Более того, с момента ужасных событий картины «Парк Юрского периода» динозавры стали хитрее, сильнее и несоизмеримо опасней. Начинается новая, стремительная и жуткая гонка на выживание, в сравнении с которой все прошлые похождения доктора Гранта — лишь детские игрушки!

Качество: UHD BDRemux 2160p
Формат: MKV

Видео: HEVC, 73360 Кбит/с, 3840x2160, 23.976 Кадр/с
Аудио#1: Русский, (DTS, 6 ch, 768 Кбит/с) - Дублированный
Аудио#2: Русский, (AC3, 6 ch, 448 Кбит/с) - MVO, Киномания
Аудио#3: Русский, (DTS-HD, 6 ch, ~4061 Кбит/с) - AVO, Ю.Живов
Аудио#4: Русский, (DTS-HD, 6 ch, ~4048 Кбит/с) - AVO, Яковлев
Аудио#5: Русский, (AC3, 2 ch, 192 Кбит/с) - AVO, С.Визгунов
Аудио#6: Русский, (AC3, 2 ch, 192 Кбит/с) - AVO, А.Дольский
Аудио#7: украинский (AC3, 6 ch, 384 Кбит/с) - MVO, 1+1
Аудио#8: украинский (AC3, 6 ch, 384 Кбит/с) - DVO, Новий канал
Аудио#9: английский, (DTS-HD MA, 8 ch, 5345 Кбит/с)
Аудио#10: английский, (АС3, 2 ch, 192 Кбит/с)
скриншот  скриншот  скриншот  скриншот  

Общее
Уникальный идентификатор : 80953621747974959532456771541168896767 (0x3CE719B5541407ADB71D0D2B8A113AFF)
Полное имя : Jurassic.Park.III.2001.Lic.BDRemux.2160p.4K.UltraHD.HEVC.HDR.IVA(6xRUS.2xUKR.ENG).ExKinoRay.mkv
Формат : Matroska
Версия формата : Version 4 / Version 2
Размер файла : 57,6 Гбайт
Продолжительность : 1 ч. 32 м.
Общий поток : 89,3 Мбит/сек
Название фильма : Парк Юрского периода 3 / Jurassic Park III ( 2001 ) UHD BDRemux | HDR, 4K | IVA(6xRUS.2xUKR.ENG) | ExKinoRay
Дата кодирования : UTC 2018-05-24 23:53:50
Программа кодирования : mkvmerge v23.0.0 ('The Bride Said No') 64-bit
Библиотека кодирования : libebml v1.3.6 + libmatroska v1.4.9
Обложка : Yes
Attachments : cover

Видео
Идентификатор : 1
Формат : HEVC
Формат/Информация : High Efficiency Video Coding
Коммерческое название : HDR10
Профиль формата : Main [email protected]@High
Идентификатор кодека : V_MPEGH/ISO/HEVC
Продолжительность : 1 ч. 32 м.
Битрейт : 73,4 Мбит/сек
Ширина : 3840 пикселей
Высота : 2160 пикселей
Соотношение сторон : 16:9
Режим частоты кадров : Постоянный
Частота кадров : 23,976 (24000/1001) кадра/сек
Цветовое пространство : YUV
Субдискретизация насыщенности : 4:2:0 (Type 2)
Битовая глубина : 10 бит
Бит/(Пиксели*Кадры) : 0.369
Размер потока : 47,2 Гбайт (82%)
Заголовок : Jurassic.Park.III.2001.BDRemux.2160p.4K.UltraHD.HEVC.HDR
Библиотека кодирования : ATEME Titan File 3.8.14 (4.8.14.0)
Язык : English
Default : Да
Forced : Нет
Цветовой диапазон : Limited
Основные цвета : BT.2020
Характеристики трансфера : PQ
Коэффициенты матрицы : BT.2020 non-constant
MasteringDisplay_Luminance : min: 0.0050 cd/m2, max: 1000 cd/m2
MaxCLL : 915 cd/m2
MaxFALL : 70 cd/m2

Аудио #1
Идентификатор : 2
Формат : DTS
Формат/Информация : Digital Theater Systems
Идентификатор кодека : A_DTS
Продолжительность : 1 ч. 32 м.
Вид битрейта : Постоянный
Битрейт : 768 Кбит/сек
Каналы : 6 каналов
Расположение каналов : Front: L C R, Side: L R, LFE
Частота : 48,0 КГц
Частота кадров : 93,750 кадра/сек (512 SPF)
Битовая глубина : 24 бит
Метод сжатия : С потерями
Размер потока : 506 Мбайт (1%)
Заголовок : | Дублированный |
Язык : Russian
Default : Да
Forced : Нет

Аудио #2
Идентификатор : 3
Формат : AC-3
Формат/Информация : Audio Coding 3
Идентификатор кодека : A_AC3
Продолжительность : 1 ч. 32 м.
Вид битрейта : Постоянный
Битрейт : 448 Кбит/сек
Каналы : 6 каналов
Расположение каналов : Front: L C R, Side: L R, LFE
Частота : 48,0 КГц
Частота кадров : 31,250 кадров/сек (1536 SPF)
Битовая глубина : 16 бит
Метод сжатия : С потерями
Размер потока : 296 Мбайт (1%)
Заголовок : | MVO, Киномания |
Язык : Russian
ServiceKind/String : Complete Main
Default : Нет
Forced : Нет

Аудио #3
Идентификатор : 4
Формат : DTS
Формат/Информация : Digital Theater Systems
Профиль формата : MA / Core
Идентификатор кодека : A_DTS
Продолжительность : 1 ч. 32 м.
Вид битрейта : Переменный / Постоянный
Битрейт : 4061 Кбит/сек / 1509 Кбит/сек
Каналы : 6 каналов
Расположение каналов : Front: L C R, Side: L R, LFE
Частота : 48,0 КГц
Частота кадров : 93,750 кадра/сек (512 SPF)
Битовая глубина : 24 бит
Метод сжатия : Без потерь / Lossy
Размер потока : 2,62 Гбайт (5%)
Заголовок : | AVO, Ю.Живов |
Язык : Russian
Default : Нет
Forced : Нет

Аудио #4
Идентификатор : 5
Формат : DTS
Формат/Информация : Digital Theater Systems
Профиль формата : MA / Core
Идентификатор кодека : A_DTS
Продолжительность : 1 ч. 32 м.
Вид битрейта : Переменный / Постоянный
Битрейт : 4048 Кбит/сек / 1509 Кбит/сек
Каналы : 6 каналов
Расположение каналов : Front: L C R, Side: L R, LFE
Частота : 48,0 КГц
Частота кадров : 93,750 кадра/сек (512 SPF)
Битовая глубина : 24 бит
Метод сжатия : Без потерь / Lossy
Размер потока : 2,61 Гбайт (5%)
Заголовок : | AVO, Яковлев |
Язык : Russian
Default : Нет
Forced : Нет

Аудио #5
Идентификатор : 6
Формат : AC-3
Формат/Информация : Audio Coding 3
Идентификатор кодека : A_AC3
Продолжительность : 1 ч. 32 м.
Вид битрейта : Постоянный
Битрейт : 192 Кбит/сек
Каналы : 2 канала
Расположение каналов : Front: L R
Частота : 48,0 КГц
Частота кадров : 31,250 кадров/сек (1536 SPF)
Битовая глубина : 16 бит
Метод сжатия : С потерями
Размер потока : 127 Мбайт (0%)
Заголовок : | AVO, С.Визгунов |
Язык : Russian
ServiceKind/String : Complete Main
Default : Нет
Forced : Нет

Аудио #6
Идентификатор : 7
Формат : AC-3
Формат/Информация : Audio Coding 3
Идентификатор кодека : A_AC3
Продолжительность : 1 ч. 32 м.
Вид битрейта : Постоянный
Битрейт : 192 Кбит/сек
Каналы : 2 канала
Расположение каналов : Front: L R
Частота : 48,0 КГц
Частота кадров : 31,250 кадров/сек (1536 SPF)
Битовая глубина : 16 бит
Метод сжатия : С потерями
Размер потока : 127 Мбайт (0%)
Заголовок : | AVO, А.Дольский |
Язык : Russian
ServiceKind/String : Complete Main
Default : Нет
Forced : Нет

Аудио #7
Идентификатор : 8
Формат : AC-3
Формат/Информация : Audio Coding 3
Идентификатор кодека : A_AC3
Продолжительность : 1 ч. 32 м.
Вид битрейта : Постоянный
Битрейт : 384 Кбит/сек
Каналы : 6 каналов
Расположение каналов : Front: L C R, Side: L R, LFE
Частота : 48,0 КГц
Частота кадров : 31,250 кадров/сек (1536 SPF)
Битовая глубина : 16 бит
Метод сжатия : С потерями
Размер потока : 254 Мбайт (0%)
Заголовок : | MVO, 1+1 |
Язык : Ukrainian
ServiceKind/String : Complete Main
Default : Нет
Forced : Нет

Аудио #8
Идентификатор : 9
Формат : AC-3
Формат/Информация : Audio Coding 3
Идентификатор кодека : A_AC3
Продолжительность : 1 ч. 32 м.
Вид битрейта : Постоянный
Битрейт : 384 Кбит/сек
Каналы : 6 каналов
Расположение каналов : Front: L C R, Side: L R, LFE
Частота : 48,0 КГц
Частота кадров : 31,250 кадров/сек (1536 SPF)
Битовая глубина : 16 бит
Метод сжатия : С потерями
Размер потока : 254 Мбайт (0%)
Заголовок : | DVO, Новий канал |
Язык : Ukrainian
ServiceKind/String : Complete Main
Default : Нет
Forced : Нет

Аудио #9
Идентификатор : 10
Формат : DTS
Формат/Информация : Digital Theater Systems
Профиль формата : X / MA / Core
Идентификатор кодека : A_DTS
Продолжительность : 1 ч. 32 м.
Вид битрейта : Переменный / Переменный / Постоянный
Битрейт : 5352 Кбит/сек / 5352 Кбит/сек / 1509 Кбит/сек
Каналы : Object Based / 8 каналов / 6 каналов
Расположение каналов : Object Based / Front: L C R, Side: L R, Back: L R, LFE / Front: L C R, Side: L R, LFE
Частота : / 48,0 КГц / 48,0 КГц
Частота кадров : 93,750 кадра/сек (512 SPF)
Битовая глубина : / 24 бит / 24 бит
Метод сжатия : / Lossless / Lossy
Размер потока : 3,45 Гбайт (6%)
Заголовок : | Original |
Язык : English
Default : Нет
Forced : Нет

Аудио #10
Идентификатор : 11
Формат : AC-3
Формат/Информация : Audio Coding 3
Идентификатор кодека : A_AC3
Продолжительность : 1 ч. 32 м.
Вид битрейта : Постоянный
Битрейт : 192 Кбит/сек
Каналы : 2 канала
Расположение каналов : Front: L R
Частота : 48,0 КГц
Частота кадров : 31,250 кадров/сек (1536 SPF)
Битовая глубина : 16 бит
Метод сжатия : С потерями
Размер потока : 127 Мбайт (0%)
Заголовок : | Comm. Stan Winston |
Язык : English
ServiceKind/String : Complete Main
Default : Нет
Forced : Нет

Текст #1
Идентификатор : 12
Формат : UTF-8
Идентификатор кодека : S_TEXT/UTF8
Идентификатор кодека/Информация : UTF-8 Plain Text
Продолжительность : 41 м. 19 с.
Битрейт : 0 бит/сек
ElementCount : 5
Размер потока : 233 байт (0%)
Заголовок : Forced
Язык : Russian
Default : Да
Forced : Да

Текст #2
Идентификатор : 13
Формат : UTF-8
Идентификатор кодека : S_TEXT/UTF8
Идентификатор кодека/Информация : UTF-8 Plain Text
Продолжительность : 1 ч. 22 м.
Битрейт : 66 бит/сек
ElementCount : 734
Размер потока : 40,4 Кбайт (0%)
Заголовок : Full
Язык : Russian
Default : Нет
Forced : Нет

Текст #3
Идентификатор : 14
Формат : UTF-8
Идентификатор кодека : S_TEXT/UTF8
Идентификатор кодека/Информация : UTF-8 Plain Text
Продолжительность : 1 ч. 23 м.
Битрейт : 72 бит/сек
ElementCount : 828
Размер потока : 44,3 Кбайт (0%)
Заголовок : SDH
Язык : Russian
Default : Нет
Forced : Нет

Текст #4
Идентификатор : 15
Формат : UTF-8
Идентификатор кодека : S_TEXT/UTF8
Идентификатор кодека/Информация : UTF-8 Plain Text
Продолжительность : 1 ч. 22 м.
Битрейт : 40 бит/сек
ElementCount : 799
Размер потока : 24,3 Кбайт (0%)
Заголовок : Full
Язык : English
Default : Нет
Forced : Нет

Текст #5
Идентификатор : 16
Формат : UTF-8
Идентификатор кодека : S_TEXT/UTF8
Идентификатор кодека/Информация : UTF-8 Plain Text
Продолжительность : 1 ч. 28 м.
Битрейт : 121 бит/сек
ElementCount : 1439
Размер потока : 78,0 Кбайт (0%)
Заголовок : Comm. Stan Winston
Язык : English
Default : Нет
Forced : Нет

Меню
00:00:00.000 : en:Chapter 1
00:04:10.833 : en:Chapter 2
00:12:42.762 : en:Chapter 3
00:17:25.836 : en:Chapter 4
00:19:55.777 : en:Chapter 5
00:26:26.334 : en:Chapter 6
00:27:34.736 : en:Chapter 7
00:32:36.871 : en:Chapter 8
00:36:12.086 : en:Chapter 9
00:40:11.033 : en:Chapter 10
00:44:31.251 : en:Chapter 11
00:53:05.557 : en:Chapter 12
00:56:47.654 : en:Chapter 13
00:58:54.614 : en:Chapter 14
01:02:59.734 : en:Chapter 15
01:11:43.799 : en:Chapter 16
01:14:52.362 : en:Chapter 17
01:18:43.260 : en:Chapter 18
01:21:28.842 : en:Chapter 19
01:24:27.270 : en:Chapter 20




Скачать Парк Юрского периода 3 через торрент https://c.radikal.ru/c30/1805/13/3ab635cb60f0.png Скачать, смотреть онлайн Парк Юрского периода 3 бесплантно в хорошем качестве Описание: Герой Сэма Нила, палеонтолог Алан Грант, принимает предложение состоятельного предпринимателя совершить обзорную экскурсию над ... 10 10 3
Info! Золотая раздача, скачанное не засчитывается.
Торрент: Зарегистрирован [2018-05-25 01:21] · скачан: 14 раз
Статус: √ проверено
Размер: 57.57 GB
Как cкачать? Как скачать Парк Юрского периода 3 через торрент | UTorrent

% Раздел Тема Автор DL S | L
Ultra HD (UHD: 2K, 4K, 8K) [ 15.82 GB ] Парк Юрского периода 3 / Jurassic Park III | DUB + MVO + 4xAVO | 2160p sheker187 Скачать
1 | 0
Ultra HD (UHD: 2K, 4K, 8K) [ 57.05 GB ] Парк Юрского периода 3 / Jurassic Park III | Дубляж | 2160p sheker187 Скачать
1 | 0
Фильмы (HD 720p, 1080p) (48-60 fps) [ 7.45 GB ] Парк Юрского периода 3 / Jurassic Park III | DUB | 720p 60 fps от еnvy / NNNB еnvy Скачать
4 | 0
Сборники на DVD и Сиквелы [DVDrip, WEB-DLRip, HDrip, BDRip] [ 5.56 GB ] Парк Юрского периода 1,2,3 / Jurassic Park 1,2,3 | | DVDRip-AVC ACFIORENTINA Скачать
1 | 1
Фильмы (DVD фильмы) [ 3.98 GB ] Парк Юрского периода 3 / Jurassic Park III | | Парк Юрского периода 3 / Jurassic Park III (Джо Джонстон amv77 Скачать
1 | 0

28-11-2019 20:33  


Отключить вcю реклaмy на сайте, в т.ч. и в плеере онлайн просмотра!

    Дорогой пользователь! Огромная просьба, поблагодарите релизера, оцените раздачу и оставьте свои комментарий, если Вы скачали Парк Юрского периода 3 через торрент бесплатно!!
    Комментировать посты могут только пользователи прошедшие не сложную регистрацию
    Показать сообщения:    


    Парк Юрского периода 3 через торрент
    Скачать бесплатно Парк Юрского периода 3
    Парк Юрского периода 3 скачать торрент
    Парк Юрского периода 3 смотреть онлайн
    Cкачать фильм Парк Юрского периода 3 бесплатно
    Парк Юрского периода 3 скачать торрент в хорошем качестве
    Парк Юрского периода 3 смотреть онлайн бесплатно в хорошем качестве
    Вы не можете начинать темы
    Вы не можете отвечать на сообщения
    Вы не можете редактировать свои сообщения
    Вы не можете удалять свои сообщения
    Вы не можете голосовать в опросах
    Вы не можете прикреплять файлы к сообщениям
    Вы можете скачивать файлы
    Парк Юрского периода 3 / Jurassic Park III [2001, Фантастика, триллер, приключения, UHD BDRemux 2160p] Дубляж+4xAVO+DVO + MVO смотреть онлайн, скачать торрент picoco.icu