Достать ножи: Стеклянная луковица

MVO

Добыча

Дубляж

Уэнсдэй

1 сезон

Тор

Дубляж

13 клиническая

1 сезон

Жестокая ночь

MVO

Одни из нас

1 сезон

Deluxe

pack

Рекомендуем

30

Пиратка

ВАЖНО

ВАЖНО

Ghostwire

Пиратка

jed

RePack

nioh2

RePack

RDR2

RePack

NEED FOR SPEED™ PAYBACK

RePack

скачать торрент

Кинопоиск HD

Острые козырьки 6 сезон

6 сезон

FAR CRY 6

RePack

скачать торрент

Лицензия

скачать торрент

MVO

1

1 сезон

скачать торрент

1 сезон

скачать торрент

Лицензия

  

Парк Юрского периода / Jurassic Park (Стивен Спилберг) [1993, Фантастика, приключения, семейный, UHD BDRemux 2160p] Дубляж+5xMVO+8xAVO+2xDVO (ukr)

Парк Юрского периода через торрент 5050.piratbit.fun

Размер: 115.13 GB | Добавлен: 4 года 8 мес. назад | Торрент скачан:24 раза
Смотреть онлайн | Скачать | Поддержите нас   

25-05-2018 01:46 Парк Юрского периода Скачать торрент  

Парк Юрского периода / Jurassic Park
Год выпуска: 1993
Страна: США
Жанр: Фантастика, приключения, семейный
Продолжительность: 02:06:36
Перевод: Дублированный, профессиональный многоголосый, авторский
Субтитры: Русские, английские

Режиссер: Стивен Спилберг

rating

В ролях:

Сэм Нилл, Лора Дерн, Джефф Голдблюм, Ричард Аттенборо, Джозеф Маццелло, Ариана Ричардс, Уэйн Найт, Боб Пек, Мартин Ферреро, Сэмюэл Л. Джексон, Б. Д. Вонг, Джералд Р. Молен, Мигель Сандовал, Кэмерон Тор, Кристофер Джон Филдс, Уайтби Хертфорд, Дин Канди, Джофри С. Браун, Том Мишлер, Грег Берсон, Адриан Эскобар, Ричард Кайли

Описание:

Экспансивный богач и профессор уговаривает пару ученых-палеонтологов приехать на остров у побережья Коста-Рики, где он устроил реликтовый парк. В парке этом водятся древние зверушки — динозавры, которые по его идее и должны стать гвоздем программы нового аттракциона. До открытия остается несколько дней, а один из работников, пытаясь продать «рассаду» налево, нарушает систему охраны, что в комплексе с грозовым ливнем приводит к тому, что доисторические животные оказываются на воле, где действуют в соответствии со своими инстинктами.

Качество: UHD BDRemux 2160p
Формат: MKV

Видео: HEVC, 50868 Кбит/с, 3840x2160, 23.976 Кадр/с
Аудио#1: DTS, 48.0 kHz, 6 ch, 768 kb/s, CBR (Russian) | MVO, Пифагор, 4k |
Аудио#2: DTS MA, 48.0 kHz, 8 ch, 5 548 kb/s (Russian) | MVO, Пифагор |
Аудио#3: DTS MA, 48.0 kHz, 8 ch, 5 451 kb/s (Russian) | Дублированный |
Аудио#4: DTS MA, 48.0 kHz, 8 ch, 5 553 kb/s (Russian) | MVO, Карусель |
Аудио#5: DTS MA, 48.0 kHz, 8 ch, 5 548 kb/s (Russian) | MVO, Premier Video Film |
Аудио#6: DTS MA, 48.0 kHz, 8 ch, 5 546 kb/s (Russian) | MVO, ОРТ |
Аудио#7: AC-3, 48.0 kHz, 6 ch, 448 kb/s, CBR (Russian) | MVO, Киномания |
Аудио#8: DTS MA, 48.0 kHz, 8 ch, 5 549 kb/s (Russian) | AVO, А.Гаврилов_NEW |
Аудио#9: DTS MA, 48.0 kHz, 8 ch, 5 545 kb/s (Russian) | AVO, А.Гаврилов_OLD |
Аудио#10: DTS MA, 48.0 kHz, 8 ch, 5 549 kb/s (Russian) | AVO, Ю.Живов |
Аудио#11: DTS MA, 48.0 kHz, 8 ch, 5 545 kb/s (Russian) | AVO, В.Горчаков |
Аудио#12: DTS MA, 48.0 kHz, 8 ch, 5 545 kb/s (Russian) | AVO, В.Володарский |
Аудио#13: DTS MA, 48.0 kHz, 8 ch, 5 546 kb/s (Russian) | AVO, Яковлев |
Аудио#14: DTS MA, 48.0 kHz, 8 ch, 5 546 kb/s (Russian) | AVO, Хрусталев |
Аудио#15: DTS MA, 48.0 kHz, 8 ch, 5 546 kb/s (Russian) | AVO, Дасевич |
Аудио#16: AC-3, 48.0 kHz, 6 ch, 448 kb/s, CBR (Ukrainian) | DVO, 1+1 |
Аудио#17: AC-3, 48.0 kHz, 6 ch, 448 kb/s, CBR (Ukrainian) | DVO, Новий канал |
Аудио#18: DTS X / MA / Core, / 48.0 kHz / 48.0 kHz, Object Based / 8 / 6 ch, 5 224 kb/s / 5 224 kb/s / 1 509 kb/s, VBR / VBR / CBR (English)
скриншот  скриншот  скриншот  скриншот  скриншот  

Общее
Уникальный идентификатор : 42093536616262941961236744940246328846 (0x1FAAEB96628BAE1F62FD4A788844E60E)
Полное имя : F:\Jurassic.Park.1993.Lic.BDRemux.2160p.4K.UltraHD.HEVC.HDR.IVA(14xRUS.2xUKR.ENG).ExKinoRay.mkv
Формат : Matroska
Версия формата : Version 4 / Version 2
Размер файла : 115 Гбайт
Продолжительность : 2 ч. 6 м.
Общий поток : 130 Мбит/сек
Название фильма : Парк Юрского периода / Jurassic Park ( 1993 ) UHD BDRemux | HDR, 4K | IVA(14xRUS.2xUKR.ENG) | ExKinoRay
Дата кодирования : UTC 2018-05-24 19:27:26
Программа кодирования : mkvmerge v23.0.0 ('The Bride Said No') 64-bit
Библиотека кодирования : libebml v1.3.6 + libmatroska v1.4.9
Обложка : Yes
Attachments : cover

Видео
Идентификатор : 1
Формат : HEVC
Формат/Информация : High Efficiency Video Coding
Профиль формата : Main [email protected]@High
Идентификатор кодека : V_MPEGH/ISO/HEVC
Продолжительность : 2 ч. 6 м.
Битрейт : 50,9 Мбит/сек
Ширина : 3840 пикселей
Высота : 2160 пикселей
Соотношение сторон : 16:9
Режим частоты кадров : Постоянный
Частота кадров : 23,976 (24000/1001) кадра/сек
Цветовое пространство : YUV
Субдискретизация насыщенности : 4:2:0 (Type 2)
Битовая глубина : 10 бит
Заголовок : Jurassic.Park.1993.BDRemux.2160p.4K.UltraHD.HEVC.HDR
Библиотека кодирования : ATEME Titan File 3.8.14 (4.8.14.0)
Язык : English
Default : Да
Forced : Нет
Цветовой диапазон : Limited
Основные цвета : BT.2020
Характеристики трансфера : SMPTE ST 2084
Коэффициенты матрицы : BT.2020 non-constant
MasteringDisplay_ColorPrimaries : R: x=0.680000 y=0.320000, G: x=0.265000 y=0.690000, B: x=0.150000 y=0.060000, White point: x=0.312700 y=0.329000
MasteringDisplay_Luminance : min: 0.0050 cd/m2, max: 1000.0000 cd/m2
MaxCLL : 910 cd/m2
MaxFALL : 101 cd/m2

Аудио #1
Идентификатор : 2
Формат : DTS
Формат/Информация : Digital Theater Systems
Режим : 16
Параметр Endianness формата : Big
Идентификатор кодека : A_DTS
Продолжительность : 2 ч. 6 м.
Вид битрейта : Постоянный
Битрейт : 768 Кбит/сек
Каналы : 6 каналов
Расположение каналов : Front: L C R, Side: L R, LFE
Частота : 48,0 КГц
Частота кадров : 93,750 кадра/сек (512 spf)
Битовая глубина : 24 бит
Метод сжатия : С потерями
Размер потока : 696 Мбайт (1%)
Заголовок : | MVO, Пифагор, 4k |
Язык : Russian
Default : Да
Forced : Нет

Аудио #2
Идентификатор : 3
Формат : DTS
Формат/Информация : Digital Theater Systems
Профиль формата : MA / Core
Режим : 16
Параметр Endianness формата : Big
Идентификатор кодека : A_DTS
Продолжительность : 2 ч. 6 м.
Вид битрейта : Переменный / Постоянный
Битрейт : Неизвестно / 1509 Кбит/сек
Каналы : 8 каналов / 6 каналов
Расположение каналов : Front: L C R, Side: L R, Back: L R, LFE / Front: L C R, Side: L R, LFE
Частота : 48,0 КГц
Частота кадров : 93,750 кадра/сек (512 spf)
Битовая глубина : 24 бит
Метод сжатия : Без потерь / Lossy
Заголовок : | MVO, Пифагор |
Язык : Russian
Default : Нет
Forced : Нет

Аудио #3
Идентификатор : 4
Формат : DTS
Формат/Информация : Digital Theater Systems
Профиль формата : MA / Core
Режим : 16
Параметр Endianness формата : Big
Идентификатор кодека : A_DTS
Продолжительность : 2 ч. 6 м.
Вид битрейта : Переменный / Постоянный
Битрейт : Неизвестно / 1509 Кбит/сек
Каналы : 8 каналов / 6 каналов
Расположение каналов : Front: L C R, Side: L R, Back: L R, LFE / Front: L C R, Side: L R, LFE
Частота : 48,0 КГц
Частота кадров : 93,750 кадра/сек (512 spf)
Битовая глубина : 24 бит
Метод сжатия : Без потерь / Lossy
Заголовок : | Дублированный |
Язык : Russian
Default : Нет
Forced : Нет

Аудио #4
Идентификатор : 5
Формат : DTS
Формат/Информация : Digital Theater Systems
Профиль формата : MA / Core
Режим : 16
Параметр Endianness формата : Big
Идентификатор кодека : A_DTS
Продолжительность : 2 ч. 6 м.
Вид битрейта : Переменный / Постоянный
Битрейт : Неизвестно / 1509 Кбит/сек
Каналы : 8 каналов / 6 каналов
Расположение каналов : Front: L C R, Side: L R, Back: L R, LFE / Front: L C R, Side: L R, LFE
Частота : 48,0 КГц
Частота кадров : 93,750 кадра/сек (512 spf)
Битовая глубина : 24 бит
Метод сжатия : Без потерь / Lossy
Заголовок : | MVO, Карусель |
Язык : Russian
Default : Нет
Forced : Нет

Аудио #5
Идентификатор : 6
Формат : DTS
Формат/Информация : Digital Theater Systems
Профиль формата : MA / Core
Режим : 16
Параметр Endianness формата : Big
Идентификатор кодека : A_DTS
Продолжительность : 2 ч. 6 м.
Вид битрейта : Переменный / Постоянный
Битрейт : Неизвестно / 1509 Кбит/сек
Каналы : 8 каналов / 6 каналов
Расположение каналов : Front: L C R, Side: L R, Back: L R, LFE / Front: L C R, Side: L R, LFE
Частота : 48,0 КГц
Частота кадров : 93,750 кадра/сек (512 spf)
Битовая глубина : 24 бит
Метод сжатия : Без потерь / Lossy
Заголовок : | MVO, Premier Video Film |
Язык : Russian
Default : Нет
Forced : Нет

Аудио #6
Идентификатор : 7
Формат : DTS
Формат/Информация : Digital Theater Systems
Профиль формата : MA / Core
Режим : 16
Параметр Endianness формата : Big
Идентификатор кодека : A_DTS
Продолжительность : 2 ч. 6 м.
Вид битрейта : Переменный / Постоянный
Битрейт : Неизвестно / 1509 Кбит/сек
Каналы : 8 каналов / 6 каналов
Расположение каналов : Front: L C R, Side: L R, Back: L R, LFE / Front: L C R, Side: L R, LFE
Частота : 48,0 КГц
Частота кадров : 93,750 кадра/сек (512 spf)
Битовая глубина : 24 бит
Метод сжатия : Без потерь / Lossy
Заголовок : | MVO, ОРТ |
Язык : Russian
Default : Нет
Forced : Нет

Аудио #7
Идентификатор : 8
Формат : AC-3
Формат/Информация : Audio Coding 3
Расширение режима : CM (complete main)
Параметр Endianness формата : Big
Идентификатор кодека : A_AC3
Продолжительность : 2 ч. 6 м.
Вид битрейта : Постоянный
Битрейт : 448 Кбит/сек
Каналы : 6 каналов
Расположение каналов : Front: L C R, Side: L R, LFE
Частота : 48,0 КГц
Частота кадров : 31,250 кадров/сек (1536 spf)
Метод сжатия : С потерями
Размер потока : 406 Мбайт (0%)
Заголовок : | MVO, Киномания |
Язык : Russian
Default : Нет
Forced : Нет

Аудио #8
Идентификатор : 9
Формат : DTS
Формат/Информация : Digital Theater Systems
Профиль формата : MA / Core
Режим : 16
Параметр Endianness формата : Big
Идентификатор кодека : A_DTS
Продолжительность : 2 ч. 6 м.
Вид битрейта : Переменный / Постоянный
Битрейт : Неизвестно / 1509 Кбит/сек
Каналы : 8 каналов / 6 каналов
Расположение каналов : Front: L C R, Side: L R, Back: L R, LFE / Front: L C R, Side: L R, LFE
Частота : 48,0 КГц
Частота кадров : 93,750 кадра/сек (512 spf)
Битовая глубина : 24 бит
Метод сжатия : Без потерь / Lossy
Заголовок : | AVO, А.Гаврилов_NEW |
Язык : Russian
Default : Нет
Forced : Нет

Аудио #9
Идентификатор : 10
Формат : DTS
Формат/Информация : Digital Theater Systems
Профиль формата : MA / Core
Режим : 16
Параметр Endianness формата : Big
Идентификатор кодека : A_DTS
Продолжительность : 2 ч. 6 м.
Вид битрейта : Переменный / Постоянный
Битрейт : Неизвестно / 1509 Кбит/сек
Каналы : 8 каналов / 6 каналов
Расположение каналов : Front: L C R, Side: L R, Back: L R, LFE / Front: L C R, Side: L R, LFE
Частота : 48,0 КГц
Частота кадров : 93,750 кадра/сек (512 spf)
Битовая глубина : 24 бит
Метод сжатия : Без потерь / Lossy
Заголовок : | AVO, А.Гаврилов_OLD |
Язык : Russian
Default : Нет
Forced : Нет

Аудио #10
Идентификатор : 11
Формат : DTS
Формат/Информация : Digital Theater Systems
Профиль формата : MA / Core
Режим : 16
Параметр Endianness формата : Big
Идентификатор кодека : A_DTS
Продолжительность : 2 ч. 6 м.
Вид битрейта : Переменный / Постоянный
Битрейт : Неизвестно / 1509 Кбит/сек
Каналы : 8 каналов / 6 каналов
Расположение каналов : Front: L C R, Side: L R, Back: L R, LFE / Front: L C R, Side: L R, LFE
Частота : 48,0 КГц
Частота кадров : 93,750 кадра/сек (512 spf)
Битовая глубина : 24 бит
Метод сжатия : Без потерь / Lossy
Заголовок : | AVO, Ю.Живов |
Язык : Russian
Default : Нет
Forced : Нет

Аудио #11
Идентификатор : 12
Формат : DTS
Формат/Информация : Digital Theater Systems
Профиль формата : MA / Core
Режим : 16
Параметр Endianness формата : Big
Идентификатор кодека : A_DTS
Продолжительность : 2 ч. 6 м.
Вид битрейта : Переменный / Постоянный
Битрейт : Неизвестно / 1509 Кбит/сек
Каналы : 8 каналов / 6 каналов
Расположение каналов : Front: L C R, Side: L R, Back: L R, LFE / Front: L C R, Side: L R, LFE
Частота : 48,0 КГц
Частота кадров : 93,750 кадра/сек (512 spf)
Битовая глубина : 24 бит
Метод сжатия : Без потерь / Lossy
Заголовок : | AVO, В.Горчаков |
Язык : Russian
Default : Нет
Forced : Нет

Аудио #12
Идентификатор : 13
Формат : DTS
Формат/Информация : Digital Theater Systems
Профиль формата : MA / Core
Режим : 16
Параметр Endianness формата : Big
Идентификатор кодека : A_DTS
Продолжительность : 2 ч. 6 м.
Вид битрейта : Переменный / Постоянный
Битрейт : Неизвестно / 1509 Кбит/сек
Каналы : 8 каналов / 6 каналов
Расположение каналов : Front: L C R, Side: L R, Back: L R, LFE / Front: L C R, Side: L R, LFE
Частота : 48,0 КГц
Частота кадров : 93,750 кадра/сек (512 spf)
Битовая глубина : 24 бит
Метод сжатия : Без потерь / Lossy
Заголовок : | AVO, В.Володарский |
Язык : Russian
Default : Нет
Forced : Нет

Аудио #13
Идентификатор : 14
Формат : DTS
Формат/Информация : Digital Theater Systems
Профиль формата : MA / Core
Режим : 16
Параметр Endianness формата : Big
Идентификатор кодека : A_DTS
Продолжительность : 2 ч. 6 м.
Вид битрейта : Переменный / Постоянный
Битрейт : Неизвестно / 1509 Кбит/сек
Каналы : 8 каналов / 6 каналов
Расположение каналов : Front: L C R, Side: L R, Back: L R, LFE / Front: L C R, Side: L R, LFE
Частота : 48,0 КГц
Частота кадров : 93,750 кадра/сек (512 spf)
Битовая глубина : 24 бит
Метод сжатия : Без потерь / Lossy
Заголовок : | AVO, Яковлев |
Язык : Russian
Default : Нет
Forced : Нет

Аудио #14
Идентификатор : 15
Формат : DTS
Формат/Информация : Digital Theater Systems
Профиль формата : MA / Core
Режим : 16
Параметр Endianness формата : Big
Идентификатор кодека : A_DTS
Продолжительность : 2 ч. 6 м.
Вид битрейта : Переменный / Постоянный
Битрейт : Неизвестно / 1509 Кбит/сек
Каналы : 8 каналов / 6 каналов
Расположение каналов : Front: L C R, Side: L R, Back: L R, LFE / Front: L C R, Side: L R, LFE
Частота : 48,0 КГц
Частота кадров : 93,750 кадра/сек (512 spf)
Битовая глубина : 24 бит
Метод сжатия : Без потерь / Lossy
Заголовок : | AVO, Хрусталев |
Язык : Russian
Default : Нет
Forced : Нет

Аудио #15
Идентификатор : 16
Формат : DTS
Формат/Информация : Digital Theater Systems
Профиль формата : MA / Core
Режим : 16
Параметр Endianness формата : Big
Идентификатор кодека : A_DTS
Продолжительность : 2 ч. 6 м.
Вид битрейта : Переменный / Постоянный
Битрейт : Неизвестно / 1509 Кбит/сек
Каналы : 8 каналов / 6 каналов
Расположение каналов : Front: L C R, Side: L R, Back: L R, LFE / Front: L C R, Side: L R, LFE
Частота : 48,0 КГц
Частота кадров : 93,750 кадра/сек (512 spf)
Битовая глубина : 24 бит
Метод сжатия : Без потерь / Lossy
Заголовок : | AVO, Дасевич |
Язык : Russian
Default : Нет
Forced : Нет

Аудио #16
Идентификатор : 17
Формат : AC-3
Формат/Информация : Audio Coding 3
Расширение режима : CM (complete main)
Параметр Endianness формата : Big
Идентификатор кодека : A_AC3
Продолжительность : 2 ч. 6 м.
Вид битрейта : Постоянный
Битрейт : 448 Кбит/сек
Каналы : 6 каналов
Расположение каналов : Front: L C R, Side: L R, LFE
Частота : 48,0 КГц
Частота кадров : 31,250 кадров/сек (1536 spf)
Метод сжатия : С потерями
Размер потока : 406 Мбайт (0%)
Заголовок : | DVO, 1+1 |
Язык : Ukrainian
Default : Нет
Forced : Нет

Аудио #17
Идентификатор : 18
Формат : AC-3
Формат/Информация : Audio Coding 3
Расширение режима : CM (complete main)
Параметр Endianness формата : Big
Идентификатор кодека : A_AC3
Продолжительность : 2 ч. 6 м.
Вид битрейта : Постоянный
Битрейт : 448 Кбит/сек
Каналы : 6 каналов
Расположение каналов : Front: L C R, Side: L R, LFE
Частота : 48,0 КГц
Частота кадров : 31,250 кадров/сек (1536 spf)
Метод сжатия : С потерями
Размер потока : 406 Мбайт (0%)
Заголовок : | DVO, Новий канал |
Язык : Ukrainian
Default : Нет
Forced : Нет

Аудио #18
Идентификатор : 19
Формат : DTS
Формат/Информация : Digital Theater Systems
Профиль формата : X / MA / Core
Режим : 16
Параметр Endianness формата : Big
Идентификатор кодека : A_DTS
Вид битрейта : Переменный / Переменный / Постоянный
Битрейт : Неизвестно / Неизвестно / 1509 Кбит/сек
Каналы : Object Based / 8 каналов / 6 каналов
Расположение каналов : Object Based / Front: L C R, Side: L R, Back: L R, LFE / Front: L C R, Side: L R, LFE
Частота : / 48,0 КГц / 48,0 КГц
Частота кадров : 93,750 кадра/сек (512 spf)
Битовая глубина : / 24 бит / 24 бит
Метод сжатия : / Lossless / Lossy
Заголовок : | Original |
Язык : English
Default : Нет
Forced : Нет

Текст #1
Идентификатор : 20
Формат : UTF-8
Идентификатор кодека : S_TEXT/UTF8
Идентификатор кодека/Информация : UTF-8 Plain Text
Заголовок : Forced
Язык : Russian
Default : Да
Forced : Да

Текст #2
Идентификатор : 21
Формат : UTF-8
Идентификатор кодека : S_TEXT/UTF8
Идентификатор кодека/Информация : UTF-8 Plain Text
Заголовок : Full
Язык : Russian
Default : Нет
Forced : Нет

Текст #3
Идентификатор : 22
Формат : UTF-8
Идентификатор кодека : S_TEXT/UTF8
Идентификатор кодека/Информация : UTF-8 Plain Text
Заголовок : SDH
Язык : Russian
Default : Нет
Forced : Нет

Текст #4
Идентификатор : 23
Формат : UTF-8
Идентификатор кодека : S_TEXT/UTF8
Идентификатор кодека/Информация : UTF-8 Plain Text
Заголовок : Full
Язык : English
Default : Нет
Forced : Нет

Текст #5
Идентификатор : 24
Формат : UTF-8
Идентификатор кодека : S_TEXT/UTF8
Идентификатор кодека/Информация : UTF-8 Plain Text
Заголовок : SDH
Язык : English
Default : Нет
Forced : Нет

Меню
00:00:00.000 : en:Chapter 1
00:05:19.819 : en:Chapter 2
00:10:14.739 : en:Chapter 3
00:15:17.041 : en:Chapter 4
00:19:33.213 : en:Chapter 5
00:23:46.800 : en:Chapter 6
00:31:40.148 : en:Chapter 7
00:37:59.193 : en:Chapter 8
00:40:26.674 : en:Chapter 9
00:55:28.033 : en:Chapter 10
01:01:43.241 : en:Chapter 11
01:10:44.114 : en:Chapter 12
01:20:01.129 : en:Chapter 13
01:34:03.971 : en:Chapter 14
01:39:45.312 : en:Chapter 15
01:43:43.175 : en:Chapter 16
01:47:56.845 : en:Chapter 17
01:54:45.378 : en:Chapter 18
01:58:04.410 : en:Chapter 19
01:59:55.980 : en:Chapter 20




Скачать Парк Юрского периода через торрент https://d.radikal.ru/d21/1805/0b/db83a7916f46.png Скачать, смотреть онлайн Парк Юрского периода бесплантно в хорошем качестве Описание: Экспансивный богач и профессор уговаривает пару ученых-палеонтологов приехать на остров у побережья Коста-Рики, где он устроил ... 10 10 4
Info! Золотая раздача, скачанное не засчитывается.
Торрент: Зарегистрирован [2018-05-25 01:46] · скачан: 24 раз
Статус: √ проверено
Размер: 115.13 GB
Как cкачать? Как скачать Парк Юрского периода через торрент | UTorrent

% Раздел Тема Автор DL S | L
Фильмы (HD 720p, 1080p) (48-60 fps) [ 5.77 GB ] Парк Юрского периода 2: Затерянный мир / The Lost World: Jurassic Park | | 720p / 60 FPS slaventi-69 Скачать
1 | 0
Фильмы (HD 720p, 1080p) (48-60 fps) [ 5.94 GB ] Парк Юрского периода / Jurassic Park | Дубляж + MVO | 720p / 60 FPS + MVO slaventi-69 Скачать
1 | 0
Ultra HD (UHD: 2K, 4K, 8K) [ 32.87 GB ] Парк Юрского периода 2: Затерянный мир / Lost World: Jurassic Park, The | MVO + 5xAVO | 2160p sheker187 Скачать
2 | 0
Ultra HD (UHD: 2K, 4K, 8K) [ 99.71 GB ] Парк Юрского периода 2: Затерянный мир / The Lost World: Jurassic Park | DUB+7xAVO+3xVO | 2160p bober100 Скачать
1 | 0
Ultra HD (UHD: 2K, 4K, 8K) [ 56.67 GB ] Парк Юрского периода / Jurassic Park | Дубляж | 2160p sheker187 Скачать
1 | 0
Ultra HD (UHD: 2K, 4K, 8K) [ 58.52 GB ] Парк Юрского периода 2: Затерянный мир / Lost World: Jurassic Park, The | Дубляж | 2160p sheker187 Скачать
1 | 0
Сборники (HD Video) [ 124.71 GB ] Парк Юрского периода: Трилогия / Jurassic Park Ultimate Trilogy | | Blu-ray CEE shuller Скачать
1 | 0

28-11-2019 20:33  


Отключить вcю реклaмy на сайте, в т.ч. и в плеере онлайн просмотра!

    Дорогой пользователь! Огромная просьба, поблагодарите релизера, оцените раздачу и оставьте свои комментарий, если Вы скачали Парк Юрского периода через торрент бесплатно!!
    Комментировать посты могут только пользователи прошедшие не сложную регистрацию
    Показать сообщения:    


    Парк Юрского периода через торрент
    Скачать бесплатно Парк Юрского периода
    Парк Юрского периода скачать торрент
    Парк Юрского периода смотреть онлайн
    Cкачать фильм Парк Юрского периода бесплатно
    Парк Юрского периода скачать торрент в хорошем качестве
    Парк Юрского периода смотреть онлайн бесплатно в хорошем качестве
    Вы не можете начинать темы
    Вы не можете отвечать на сообщения
    Вы не можете редактировать свои сообщения
    Вы не можете удалять свои сообщения
    Вы не можете голосовать в опросах
    Вы не можете прикреплять файлы к сообщениям
    Вы можете скачивать файлы
    Парк Юрского периода / Jurassic Park [1993, Фантастика, приключения, семейный, UHD BDRemux 2160p] Дубляж+5xMVO+8xAVO+2xDVO смотреть онлайн, скачать торрент picoco.icu