Достать ножи: Стеклянная луковица

MVO

Добыча

Дубляж

Уэнсдэй

1 сезон

Тор

Дубляж

13 клиническая

1 сезон

Жестокая ночь

MVO

Одни из нас

1 сезон

Deluxe

pack

Рекомендуем

30

Пиратка

ВАЖНО

ВАЖНО

Ghostwire

Пиратка

jed

RePack

nioh2

RePack

RDR2

RePack

NEED FOR SPEED™ PAYBACK

RePack

скачать торрент

Кинопоиск HD

Острые козырьки 6 сезон

6 сезон

FAR CRY 6

RePack

скачать торрент

Лицензия

скачать торрент

MVO

1

1 сезон

скачать торрент

1 сезон

скачать торрент

Лицензия

  

Великий Гэтсби / The Great Gatsby (Баз Лурман) [2013, Драма, мелодрама, UHD BDRip 2160p] Дубляж + AVO [Ю.Сербин]

Великий Гэтсби через торрент 5050.piratbit.fun

Размер: 63.91 GB | Добавлен: 4 года 8 мес. назад | Торрент скачан:49 раз
Смотреть онлайн | Скачать | Поддержите нас   

25-05-2018 04:28 Великий Гэтсби Скачать торрент  

Великий Гэтсби / The Great Gatsby«Нельзя вернуть прошлое? Ну, конечно, можно!»
Год выпуска: 2013
Страна: Австралия, США
Жанр: Драма, мелодрама
Продолжительность: 02:22:05
Перевод: Дублированный, авторский
Субтитры: Русские (Вшитые, отключаемые, форсированные)
Режиссер: Баз Лурман
В ролях:

Леонардо ДиКаприо (Jay Gatsby), Тоби Магуайр (Nick Carraway), Кэри Маллиган (Daisy Buchanan), Джоэл Эдгертон (Tom Buchanan), Айла Фишер (Myrtle Wilson), Джейсон Кларк (George Wilson), Элизабет Дебики (Jordan Baker), Каллэн МакОлифф (Teen Jay Gatsby), Джек Томпсон (Dr. Walter Perkins), Амитабх Баччан (Meyer Wolfsheim), Лиза Адам (Weeping), Фрэнк Элдридж (Well Dressed Male Witness - Wilson's Garage)
Описание:
1920-е годы. Нью-Йорк. На побережье Лонг-Айленда среди шикарных резиденций богатейших людей Америки затерялся маленький домик, который снял всего за сотню в месяц молодой парень - начинающий писатель, честно зарабатывающий начальный капитал в небольшой кредитной конторе. А рядом, всего в двух шагах от его скромного жилища, возвышался настоящий замок, куда на грандиозные вечеринки съезжались толпы весёлых гостей, шампанское лилось рекой, а от фейерверков и ночью было светло как днём! Говорят, что всё это было делом рук мистера Гэтсби - баснословно богатого и безмерно влиятельного! Странно, но почему-то больше никто и ничего не знал о нём - кто он такой, откуда взялся, как разбогател и, особенно, почему, стоя ночами на своём причале в полнейшем одиночестве и думая, что его никто не видит, он протягивал руку в темноту, туда, где на противоположном берегу возле такого же богатого дома мерцал сквозь туман маленький зелёный огонёк, даря зыбкую надежду и такую сладкую боль?...
Рейтинг:

Качество: UHD BDRip 2160p
Формат: MKV
Видео: HEVC, 59600 Кбит/с, 3840x2160, 23.976 кадр/с
Аудио: AC3, 6 ch, 448 Кбит/сек, CBR-Русский
Аудио: DTS 5.1, 1509 kbps, 48 kHz (AVO, Ю.Сербин) Русский
Аудио: DTS 5.1, 1509 kbps, 48 kHz (Оригинал) Английский
Общее
Уникальный идентификатор : 205129811549100447826088334214716427053 (0x9A52908D39180A09ABC3C40D0FB78B2D)
Полное имя : H:\4K VIDEO\ВЕЛИКИЙ ГЕТСБИ (2013) 2160p 4K UltraHD .mkv
Формат : Matroska
Версия формата : Version 4 / Version 2
Размер файла : 63,9 Гбайт
Продолжительность : 2 ч. 22 м.
Общий поток : 64,4 Мбит/сек
Название фильма : Великий Гэтсби / The Great Gatsby.2013 [email protected]
Дата кодирования : UTC 2017-01-18 11:13:45 / UTC 2016-11-17T20:20:17Z
Программа кодирования : mkvmerge v9.6.0 ('Slave To Your Mind') 64bit
Библиотека кодирования : libebml v1.3.4 + libmatroska v1.4.5 / Lavf56.1.0

Видео
Идентификатор : 1
Формат : HEVC
Формат/Информация : High Efficiency Video Coding
Профиль формата : Main [email protected]@Main
Идентификатор кодека : V_MPEGH/ISO/HEVC
Продолжительность : 2 ч. 22 м.
Битрейт : 59,6 Мбит/сек
Ширина : 3840 пикселей
Высота : 2160 пикселей
Соотношение сторон : 16:9
Режим частоты кадров : Постоянный
Частота кадров : 23,976 (24000/1001) кадра/сек
Цветовое пространство : YUV
Субдискретизация насыщенности : 4:2:0
Битовая глубина : 10 бит
Бит/(Пиксели*Кадры) : 0.300
Размер потока : 59,2 Гбайт (93%)
Библиотека кодирования : x265 1.9+3-63308f7658c3:[Windows][GCC 5.2.0][64 bit] 10bit
Настройки программы : wpp / ctu=64 / min-cu-size=8 / max-tu-size=32 / tu-intra-depth=1 / tu-inter-depth=1 / me=1 / subme=2 / merange=57 / no-rect / no-amp / max-merge=2 / temporal-mvp / no-early-skip / rdpenalty=0 / no-tskip / no-tskip-fast / strong-intra-smoothing / no-lossless / no-cu-lossless / no-constrained-intra / no-fast-intra / open-gop / no-temporal-layers / interlace=0 / keyint=240 / min-keyint=24 / scenecut=40 / rc-lookahead=20 / lookahead-slices=8 / bframes=4 / bframe-bias=0 / b-adapt=2 / ref=3 / limit-refs=3 / no-limit-modes / weightp / no-weightb / aq-mode=1 / qg-size=32 / aq-strength=1.00 / cbqpoffs=0 / crqpoffs=0 / rd=3 / psy-rd=2.00 / rdoq-level=0 / psy-rdoq=0.00 / signhide / deblock / sao / no-sao-non-deblock / b-pyramid / cutree / no-intra-refresh / rc=abr / bitrate=61000 / qcomp=0.60 / qpmin=0 / qpmax=51 / qpstep=4 / ipratio=1.40 / pbratio=1.30
Default : Да
Forced : Нет
Цветовой диапазон : Limited
Основные цвета : BT.709
Характеристики трансфера : BT.709
Коэффициенты матрицы : BT.601
Statistics Tags Issue : mkvmerge v9.6.0 ('Slave To Your Mind') 64bit 2017-01-18 11:13:45 / mkvmerge v9.6.0 ('Slave To Your Mind') 64bit 2017-01-18 11:13:45 / UTC 2016-11-17T20:20:17Z
FromStats_BitRate : 60933475
FromStats_Duration : 02:22:04.016000000
FromStats_FrameCount : 204372
FromStats_StreamSize : 64924740521

Аудио #1
Идентификатор : 2
Формат : AC-3
Формат/Информация : Audio Coding 3
Расширение режима : CM (complete main)
Параметр Endianness формата : Big
Идентификатор кодека : A_AC3
Продолжительность : 2 ч. 22 м.
Вид битрейта : Постоянный
Битрейт : 448 Кбит/сек
Каналы : 6 каналов
Расположение каналов : Front: L C R, Side: L R, LFE
Частота : 48,0 КГц
Частота кадров : 31,250 кадров/сек (1536 spf)
Метод сжатия : С потерями
Задержка видео : 1 с. 184 мс.
Размер потока : 455 Мбайт (1%)
Заголовок : AC3 5.1 Dubl-Blu-ray CEE
Язык : Russian
Default : Да
Forced : Нет
Statistics Tags Issue : mkvmerge v9.6.0 ('Slave To Your Mind') 64bit 2017-01-18 11:13:45 / mkvmerge v9.6.0 ('Slave To Your Mind') 64bit 2017-01-18 11:13:45 / UTC 2016-11-17T20:20:17Z
FromStats_BitRate : 448000
FromStats_Duration : 02:22:04.032000000
FromStats_FrameCount : 266376
FromStats_StreamSize : 477345792

Аудио #2
Идентификатор : 3
Формат : DTS
Формат/Информация : Digital Theater Systems
Режим : 16
Параметр Endianness формата : Big
Идентификатор кодека : A_DTS
Продолжительность : 2 ч. 22 м.
Вид битрейта : Постоянный
Битрейт : 1509 Кбит/сек
Каналы : 6 каналов
Расположение каналов : Front: L C R, Side: L R, LFE
Частота : 48,0 КГц
Частота кадров : 93,750 кадра/сек (512 spf)
Битовая глубина : 16 бит
Метод сжатия : С потерями
Задержка видео : 1 с. 184 мс.
Размер потока : 1,50 Гбайт (2%)
Заголовок : DTS 5.1 AVO-Ю.Сербин
Язык : Russian
Default : Нет
Forced : Нет
Statistics Tags Issue : mkvmerge v9.6.0 ('Slave To Your Mind') 64bit 2017-01-18 11:13:45 / mkvmerge v9.6.0 ('Slave To Your Mind') 64bit 2017-01-18 11:13:45 / UTC 2016-11-17T20:20:17Z
FromStats_BitRate : 1509000
FromStats_Duration : 02:22:04.032000000
FromStats_FrameCount : 799128
FromStats_StreamSize : 1607845536

Аудио #3
Идентификатор : 4
Формат : DTS
Формат/Информация : Digital Theater Systems
Режим : 16
Параметр Endianness формата : Big
Идентификатор кодека : A_DTS
Продолжительность : 2 ч. 22 м.
Вид битрейта : Постоянный
Битрейт : 1509 Кбит/сек
Каналы : 6 каналов
Расположение каналов : Front: L C R, Side: L R, LFE
Частота : 48,0 КГц
Частота кадров : 93,750 кадра/сек (512 spf)
Битовая глубина : 16 бит
Метод сжатия : С потерями
Задержка видео : 1 с. 184 мс.
Размер потока : 1,50 Гбайт (2%)
Заголовок : DTS 5.1 Original
Язык : English
Default : Нет
Forced : Нет
Statistics Tags Issue : mkvmerge v9.6.0 ('Slave To Your Mind') 64bit 2017-01-18 11:13:45 / mkvmerge v9.6.0 ('Slave To Your Mind') 64bit 2017-01-18 11:13:45 / UTC 2016-11-17T20:20:17Z
FromStats_BitRate : 1509000
FromStats_Duration : 02:22:04.022000000
FromStats_FrameCount : 799127
FromStats_StreamSize : 1607844024

Текст
Идентификатор : 5
Формат : UTF-8
Идентификатор кодека : S_TEXT/UTF8
Идентификатор кодека/Информация : UTF-8 Plain Text
Заголовок : Forced
Язык : Russian
Default : Да
Forced : Нет
Statistics Tags Issue : mkvmerge v9.6.0 ('Slave To Your Mind') 64bit 2017-01-18 11:13:45 / mkvmerge v9.6.0 ('Slave To Your Mind') 64bit 2017-01-18 11:13:45 / UTC 2016-11-17T20:20:17Z
FromStats_BitRate : 0
FromStats_Duration : 02:07:11.498000000
FromStats_FrameCount : 21
FromStats_StreamSize : 626



Скачать Великий Гэтсби через торрент https://c.radikal.ru/c25/1805/66/878dbf463d6b.png Скачать, смотреть онлайн Великий Гэтсби бесплантно в хорошем качестве Описание: 1920-е годы. Нью-Йорк. На побережье Лонг-Айленда среди шикарных резиденций богатейших людей Америки затерялся маленький домик, ... 10 10 2
Info! Золотая раздача, скачанное не засчитывается.
Торрент: Зарегистрирован [2018-05-25 04:28] · скачан: 49 раз
Статус: √ проверено
Размер: 63.91 GB
Как cкачать? Как скачать Великий Гэтсби через торрент | UTorrent

% Раздел Тема Автор DL S | L
Ultra HD (UHD: 2K, 4K, 8K) [ 87.52 GB ] Великий Гэтсби / The Great Gatsby | Лицензия | 2160p sheker187 Скачать
1 | 0
Ultra HD (UHD: 2K, 4K, 8K) [ 70.92 GB ] Великий Гэтсби / The Great Gatsby | DUB | BD Remux 2160p sheker187 Скачать
1 | 0
Фильмы [HD 720p, 1080p] (Хороший звук DUB, MVO) [ 7.76 GB ] Великий Гэтсби / The Great Gatsby | DUB | 720p от _denis_100 / NNNB _denis_100 Скачать
1 | 0
Фильмы 2013 [DVDrip, WEB-DLRip, HDrip] [ 2.18 GB ] Великий Гэтсби / The Great Gatsby | Лицензия | HDRip, Дубляж Ворон Скачать
1 | 0
Фильмы (DVD фильмы) [ 7.03 GB ] Великий Гэтсби / The Great Gatsby | | 2013, драма, мелодрама, DVD9 voovaz Скачать
1 | 0
3D Фильмы [ 12.09 GB ] Великий Гэтсби 3D / The Great Gatsby 3D | Дубляж + Оригинал | 1080p, Дубляж + Оригинал SkipeR Скачать
1 | 0
Фильмы 2013 [DVDrip, WEB-DLRip, HDrip] [ 1.45 GB ] Великий Гэтсби / The Great Gatsby | iTunes Russia | HDRip, Дубляж - iTunes Russia Ворон Скачать
1 | 0

28-11-2019 20:33  


Отключить вcю реклaмy на сайте, в т.ч. и в плеере онлайн просмотра!


    Дорогой пользователь! Огромная просьба, поблагодарите релизера, оцените раздачу и оставьте свои комментарий, если Вы скачали Великий Гэтсби через торрент бесплатно!!
    Комментировать посты могут только пользователи прошедшие не сложную регистрацию
    Показать сообщения:    


    Великий Гэтсби через торрент
    Скачать бесплатно Великий Гэтсби
    Великий Гэтсби скачать торрент
    Великий Гэтсби смотреть онлайн
    Cкачать фильм Великий Гэтсби бесплатно
    Великий Гэтсби скачать торрент в хорошем качестве
    Великий Гэтсби смотреть онлайн бесплатно в хорошем качестве
    Вы не можете начинать темы
    Вы не можете отвечать на сообщения
    Вы не можете редактировать свои сообщения
    Вы не можете удалять свои сообщения
    Вы не можете голосовать в опросах
    Вы не можете прикреплять файлы к сообщениям
    Вы можете скачивать файлы
    Великий Гэтсби / The Great Gatsby [2013, Драма, мелодрама, UHD BDRip 2160p] Дубляж + AVO [Ю.Сербин] смотреть онлайн, скачать торрент picoco.icu