Достать ножи: Стеклянная луковица

MVO

Добыча

Дубляж

Уэнсдэй

1 сезон

Тор

Дубляж

13 клиническая

1 сезон

Жестокая ночь

MVO

Одни из нас

1 сезон

Deluxe

pack

Рекомендуем

30

Пиратка

ВАЖНО

ВАЖНО

Ghostwire

Пиратка

jed

RePack

nioh2

RePack

RDR2

RePack

NEED FOR SPEED™ PAYBACK

RePack

скачать торрент

Кинопоиск HD

Острые козырьки 6 сезон

6 сезон

FAR CRY 6

RePack

скачать торрент

Лицензия

скачать торрент

MVO

1

1 сезон

скачать торрент

1 сезон

скачать торрент

Лицензия

  

Чёрная Пантера / Black Panther (Райан Куглер) [2018, фантастика, боевик, приключения, UHD BDRip 2160p] [SDR] Дубляж (rus, ukr) + MVO [HDRezka]

Чёрная Пантера через торрент 5050.piratbit.fun

Размер: 29.35 GB | Добавлен: 4 года 8 мес. назад | Торрент скачан:140 раз
Смотреть онлайн | Скачать | Поддержите нас   

26-05-2018 18:15 Чёрная Пантера Скачать торрент  

Чёрная Пантера / Black Panther«Да здравствует король»
Год выпуска: 2018
Страна: США
Жанр: фантастика, боевик, приключения
Продолжительность: 02:14:33
Перевод: Дублированный, профессиональный многоголосый
Субтитры: Русские, английские
Режиссер: Райан Куглер
В ролях:

Чедвик Боузман (T'Challa / Black Panther), Майкл Б. Джордан (Erik Killmonger), Лупита Нионго (Nakia), Данай Джекесай Гурира (Okoye), Мартин Фриман (Everett K. Ross), Дэниэл Калуя (W'Kabi), Летишиа Райт (Shuri), Уинстон Дьюк (M'Baku), Стерлинг К. Браун (N'Jobu), Анджела Бассетт (Ramonda), Форест Уитакер (Zuri), Энди Серкис (Ulysses Klaue)
Описание:
С первого взгляда можно решить, что Ваканда - обычная территория дикой Африки, но это не так. Здесь, в недрах пустынных земель, скрываются залежи уникального металла, способного поглощать вибрацию. Многие пытались добраться до него, разоряя всё на своём пути и принося смерть аборигенам, но каждый раз таинственный дух саванны - Чёрная Пантера - вставал на защиту угнетённых.
Рейтинг:

MPAA: PG-13 - Детям до 13 лет просмотр не желателен
Качество: UHD BDRip 2160p [SDR]
Формат: MKV
Видео: MPEG-4 AVC, 25400 Кбит/с, 3840x1608, 23.976 кадр/с
Аудио 1: AC-3, 48.0 KHz, 6 ch, 640 Kbps | Рус_лицензия
Аудио 2: AC-3, 48.0 KHz, 2 ch, 192 Kbps | Рус [Профессиональный многоголосый, HDRezka]
Аудио 3: AC-3, 48.0 KHz, 2 ch, 192 Kbps | UKR [Дубляж/LeDoyen]
Аудио 4: Atmos / TrueHD, 48.0 KHz, 8 ch, 4327 Kbps | ENG
Аудио 5: AC-3, 48.0 KHz, 6 ch, 448 Kbps | ENG
Навигация по главам: есть
Профиль формата: [email protected]_8 ми-битный SDR
Общее
Уникальный идентификатор : 196348268283262599745834140756029582883 (0x93B74D0A81135F7599B6DB016835AE23)
Полное имя : H:\Black.Panther.2018.2160p.BluRay.x264.8bit.SDR.Master5.mkv
Формат : Matroska
Версия формата : Version 4 / Version 2
Размер файла : 29,3 Гбайт
Продолжительность : 2 ч. 14 м.
Режим общего битрейта : Переменный
Общий поток : 31,2 Мбит/сек
Дата кодирования : UTC 2018-05-26 00:11:17
Программа кодирования : mkvmerge v8.1.0 ('Psychedelic Postcard') 32bit
Библиотека кодирования : libebml v1.3.1 + libmatroska v1.4.2
Обложка : Yes
Attachments : cover.jpg / cover.jpg

Видео
Идентификатор : 1
Формат : AVC
Формат/Информация : Advanced Video Codec
Профиль формата : [email protected]
Параметр CABAC формата : Да
Параметр ReFrames формата : 5 кадров
Идентификатор кодека : V_MPEG4/ISO/AVC
Продолжительность : 2 ч. 14 м.
Битрейт : 25,4 Мбит/сек
Ширина : 3840 пикселей
Высота : 1608 пикселей
Соотношение сторон : 2,40:1
Режим частоты кадров : Постоянный
Частота кадров : 23,976 (24000/1001) кадра/сек
Цветовое пространство : YUV
Субдискретизация насыщенности : 4:2:0
Битовая глубина : 8 бит
Тип развёртки : Прогрессивная
Бит/(Пиксели*Кадры) : 0.171
Размер потока : 23,8 Гбайт (81%)
Заголовок : Black.Panther.2018.2160p.BluRay.x264.8bit.SDR.Master5
Библиотека кодирования : x264 core 148 r2748 97eaef2
Настройки программы : cabac=1 / ref=5 / deblock=1:-1:-1 / analyse=0x3:0x113 / me=umh / subme=10 / psy=1 / psy_rd=1.00:0.15 / mixed_ref=1 / me_range=48 / chroma_me=1 / trellis=2 / 8x8dct=1 / cqm=0 / deadzone=21,11 / fast_pskip=1 / chroma_qp_offset=-3 / threads=36 / lookahead_threads=3 / sliced_threads=0 / nr=0 / decimate=0 / interlaced=0 / bluray_compat=0 / constrained_intra=0 / bframes=3 / b_pyramid=2 / b_adapt=2 / b_bias=0 / direct=3 / weightb=1 / open_gop=0 / weightp=2 / keyint=250 / keyint_min=23 / scenecut=40 / intra_refresh=0 / rc_lookahead=50 / rc=crf / mbtree=1 / crf=18.0 / qcomp=0.60 / qpmin=0 / qpmax=69 / qpstep=4 / ip_ratio=1.40 / aq=1:1.00
Default : Да
Forced : Нет

Аудио #1
Идентификатор : 2
Формат : AC-3
Формат/Информация : Audio Coding 3
Расширение режима : CM (complete main)
Параметр Endianness формата : Big
Идентификатор кодека : A_AC3
Продолжительность : 2 ч. 14 м.
Вид битрейта : Постоянный
Битрейт : 640 Кбит/сек
Каналы : 6 каналов
Расположение каналов : Front: L C R, Side: L R, LFE
Частота : 48,0 КГц
Частота кадров : 31,250 кадров/сек (1536 spf)
Метод сжатия : С потерями
Размер потока : 616 Мбайт (2%)
Заголовок : Дубляж _License
Язык : Russian
Default : Да
Forced : Да

Аудио #2
Идентификатор : 3
Формат : AC-3
Формат/Информация : Audio Coding 3
Расширение режима : CM (complete main)
Параметр Endianness формата : Big
Идентификатор кодека : A_AC3
Продолжительность : 2 ч. 14 м.
Вид битрейта : Постоянный
Битрейт : 192 Кбит/сек
Каналы : 2 канала
Расположение каналов : Front: L R
Частота : 48,0 КГц
Частота кадров : 31,250 кадров/сек (1536 spf)
Метод сжатия : С потерями
Размер потока : 185 Мбайт (1%)
Заголовок : HDRezka
Язык : Russian
Default : Нет
Forced : Нет

Аудио #3
Идентификатор : 4
Формат : AC-3
Формат/Информация : Audio Coding 3
Расширение режима : CM (complete main)
Параметр Endianness формата : Big
Идентификатор кодека : A_AC3
Продолжительность : 2 ч. 14 м.
Вид битрейта : Постоянный
Битрейт : 192 Кбит/сек
Каналы : 2 канала
Расположение каналов : Front: L R
Частота : 48,0 КГц
Частота кадров : 31,250 кадров/сек (1536 spf)
Метод сжатия : С потерями
Размер потока : 185 Мбайт (1%)
Заголовок : LeDoyen
Язык : Ukrainian
Default : Нет
Forced : Нет

Аудио #4
Идентификатор : 5
Формат : Atmos / TrueHD
Идентификатор кодека : A_TRUEHD
Продолжительность : 2 ч. 14 м.
Вид битрейта : Переменный
Битрейт : 4327 Кбит/сек
Максимальный битрейт : 7134 Кбит/сек
Каналы : Object Based / 8 каналов
Расположение каналов : Object Based / Front: L C R, Side: L R, Back: L R, LFE
Частота : / 48,0 КГц
Частота кадров : 1200,000 кадров/сек (40 spf)
Метод сжатия : Без потерь
Задержка видео : 32 мс.
Размер потока : 4,07 Гбайт (14%)
Язык : English
Default : Нет
Forced : Нет

Аудио #5
Идентификатор : 6
Формат : AC-3
Формат/Информация : Audio Coding 3
Расширение режима : CM (complete main)
Параметр Endianness формата : Big
Идентификатор кодека : A_AC3
Продолжительность : 2 ч. 14 м.
Вид битрейта : Постоянный
Битрейт : 448 Кбит/сек
Каналы : 6 каналов
Расположение каналов : Front: L C R, Side: L R, LFE
Частота : 48,0 КГц
Частота кадров : 31,250 кадров/сек (1536 spf)
Метод сжатия : С потерями
Размер потока : 431 Мбайт (1%)
Язык : English
Default : Нет
Forced : Нет

Текст #1
Идентификатор : 7
Формат : UTF-8
Идентификатор кодека : S_TEXT/UTF8
Идентификатор кодека/Информация : UTF-8 Plain Text
Продолжительность : 2 ч. 12 м.
Битрейт : 2 бит/сек
Count of elements : 77
Размер потока : 2,20 Кбайт (0%)
Заголовок : Forced
Язык : Russian
Default : Да
Forced : Да

Текст #2
Идентификатор : 8
Формат : UTF-8
Идентификатор кодека : S_TEXT/UTF8
Идентификатор кодека/Информация : UTF-8 Plain Text
Продолжительность : 2 ч. 14 м.
Битрейт : 64 бит/сек
Count of elements : 1460
Размер потока : 63,8 Кбайт (0%)
Заголовок : Full
Язык : Russian
Default : Нет
Forced : Нет

Текст #3
Идентификатор : 9
Формат : UTF-8
Идентификатор кодека : S_TEXT/UTF8
Идентификатор кодека/Информация : UTF-8 Plain Text
Продолжительность : 2 ч. 14 м.
Битрейт : 78 бит/сек
Count of elements : 1849
Размер потока : 77,3 Кбайт (0%)
Заголовок : SDH
Язык : Russian
Default : Нет
Forced : Нет

Текст #4
Идентификатор : 10
Формат : UTF-8
Идентификатор кодека : S_TEXT/UTF8
Идентификатор кодека/Информация : UTF-8 Plain Text
Продолжительность : 2 ч. 14 м.
Битрейт : 41 бит/сек
Count of elements : 1581
Размер потока : 40,4 Кбайт (0%)
Заголовок : Full
Язык : English
Default : Нет
Forced : Нет

Текст #5
Идентификатор : 11
Формат : UTF-8
Идентификатор кодека : S_TEXT/UTF8
Идентификатор кодека/Информация : UTF-8 Plain Text
Продолжительность : 2 ч. 14 м.
Битрейт : 47 бит/сек
Count of elements : 1835
Размер потока : 47,1 Кбайт (0%)
Заголовок : SDH
Язык : English
Default : Нет
Forced : Нет

Текст #6
Идентификатор : 12
Формат : UTF-8
Идентификатор кодека : S_TEXT/UTF8
Идентификатор кодека/Информация : UTF-8 Plain Text
Продолжительность : 2 ч. 14 м.
Битрейт : 66 бит/сек
Count of elements : 1834
Размер потока : 65,1 Кбайт (0%)
Заголовок : SDH Colored
Язык : English
Default : Нет
Forced : Нет

Меню
00:00:00.000 : en:Chapter 1
00:06:56.290 : en:Chapter 2
00:12:02.805 : en:Chapter 3
00:19:12.359 : en:Chapter 4
00:28:32.961 : en:Chapter 5
00:33:11.698 : en:Chapter 6
00:40:57.496 : en:Chapter 7
00:48:34.036 : en:Chapter 8
00:53:46.097 : en:Chapter 9
01:01:57.338 : en:Chapter 10
01:08:33.025 : en:Chapter 11
01:16:46.768 : en:Chapter 12
01:22:24.022 : en:Chapter 13
01:31:21.434 : en:Chapter 14
01:41:15.360 : en:Chapter 15
01:50:56.483 : en:Chapter 16
01:59:16.941 : en:Chapter 17
02:02:43.647 : en:Chapter 18



Скачать Чёрная Пантера через торрент https://c.radikal.ru/c39/1805/fa/b4b932af5ee0.png Скачать, смотреть онлайн Чёрная Пантера бесплантно в хорошем качестве Описание: С первого взгляда можно решить, что Ваканда - обычная территория дикой Африки, но это не так. Здесь, в недрах пустынных земель, ... 10 10 4
Info! Золотая раздача, скачанное не засчитывается.
Торрент: Зарегистрирован [2018-05-26 18:15] · скачан: 140 раз
Статус: √ проверено
Размер: 29.35 GB
Как cкачать? Как скачать Чёрная Пантера через торрент | UTorrent

% Раздел Тема Автор DL S | L
Фильмы 2022-2023 [DVDrip, WEB-DLRip, HDrip] (DUB, MVO) [ 3.07 GB ] Чёрная Пантера: Ваканда навеки / Black Panther: Wakanda Forever | Jaskier | DLRip-AVC bober100 Скачать
40 | 11
Ultra HD (UHD: 2K, 4K, 8K) [ 53.88 GB ] Чёрная Пантера: Ваканда навеки / Black Panther: Wakanda Forever | Jaskier | 2160p bober100 Скачать
23 | 20
Фильмы [HD 720p, 1080p] (Хороший звук DUB, MVO) [ 7.22 GB ] Чёрная Пантера: Ваканда навеки / Black Panther: Wakanda Forever | Jaskier | 720p bober100 Скачать
34 | 7
Фильмы [HD 720p, 1080p] (Хороший звук DUB, MVO) [ 12.84 GB ] Чёрная Пантера: Ваканда навеки / Black Panther: Wakanda Forever | Jaskier | 1080p bober100 Скачать
61 | 20
Фильмы 2022-2023 [DVDrip, WEB-DLRip, HDrip] (DUB, MVO) [ 3.71 GB ] Чёрная Пантера: Ваканда навеки / Black Panther: Wakanda Forever | Jaskier | BDRip-AVC bober100 Скачать
6 | 0
Фильмы (Blu-ray, BD-Remux, HDDVD) [ 37.68 GB ] Чёрная Пантера: Ваканда навеки / Black Panther: Wakanda Forever | Jaskier | BD Remux 1080p bober100 Скачать
11 | 5
Фильмы [HD 720p, 1080p] (Хороший звук DUB, MVO) [ 9.97 GB ] Чёрная Пантера / Black Panther | Лицензия | 1080p bober100 Скачать
1 | 0

28-11-2019 20:33  


Отключить вcю реклaмy на сайте, в т.ч. и в плеере онлайн просмотра!

    Дорогой пользователь! Огромная просьба, поблагодарите релизера, оцените раздачу и оставьте свои комментарий, если Вы скачали Чёрная Пантера через торрент бесплатно!!
    Комментировать посты могут только пользователи прошедшие не сложную регистрацию
    Показать сообщения:    


    Чёрная Пантера через торрент
    Скачать бесплатно Чёрная Пантера
    Чёрная Пантера скачать торрент
    Чёрная Пантера смотреть онлайн
    Cкачать фильм Чёрная Пантера бесплатно
    Чёрная Пантера скачать торрент в хорошем качестве
    Чёрная Пантера смотреть онлайн бесплатно в хорошем качестве
    Вы не можете начинать темы
    Вы не можете отвечать на сообщения
    Вы не можете редактировать свои сообщения
    Вы не можете удалять свои сообщения
    Вы не можете голосовать в опросах
    Вы не можете прикреплять файлы к сообщениям
    Вы можете скачивать файлы
    Чёрная Пантера / Black Panther [2018, фантастика, боевик, приключения, UHD BDRip 2160p] [SDR] Дубляж + MVO [HDRezka] смотреть онлайн, скачать торрент picoco.icu