Достать ножи: Стеклянная луковица

MVO

Добыча

Дубляж

Уэнсдэй

1 сезон

Тор

Дубляж

13 клиническая

1 сезон

Жестокая ночь

MVO

Одни из нас

1 сезон

Deluxe

pack

Рекомендуем

30

Пиратка

ВАЖНО

ВАЖНО

Ghostwire

Пиратка

jed

RePack

nioh2

RePack

RDR2

RePack

NEED FOR SPEED™ PAYBACK

RePack

скачать торрент

Кинопоиск HD

Острые козырьки 6 сезон

6 сезон

FAR CRY 6

RePack

скачать торрент

Лицензия

скачать торрент

MVO

1

1 сезон

скачать торрент

1 сезон

скачать торрент

Лицензия

  

Леон / Профессионал / Léon / The Professional (Люк Бессон) [1994, Боевик, драма, криминал, триллер, UHD BDRip 2160p] MVO + 2xAVO [Режиссерская версия]

Леон через торрент 5050.piratbit.fun

Размер: 39.98 GB | Добавлен: 4 года 8 мес. назад | Торрент скачан:58 раз
Смотреть онлайн | Скачать | Поддержите нас   

27-05-2018 02:25 Леон Скачать торрент  

Леон / Профессионал / Léon / The Professional«Вы не можете остановить того, кого не видно»
Год выпуска: 1994
Страна: Франция
Жанр: триллер, драма, криминал
Продолжительность: 02:12:52
Перевод: Профессиональный многоголосый, авторский
Субтитры: Русские, английские
Режиссер: Люк Бессон
В ролях:

Жан Рено (Leon), Гари Олдман (Stansfield), Натали Портман (Mathilda), Дэнни Айелло (Tony), Питер Эппел (Malky), Уилли Уан Блад (1st Stansfield Man), Дон Крич (2nd Stansfield man), Кит А. Гласко (3rd Stansfield man), Рэндольф Скотт (4th Stansfield man), Майкл Бадалукко (Mathilda's Father), Эллен Грин (Mathilda's Mother), Элизабет Реген (Mathilda's Sister)
Описание:
Профессиональный убийца Леон, не знающий пощады и жалости, знакомится со своей очаровательной соседкой Матильдой, семью которой расстреливают полицейские, замешанные в торговле наркотиками. Благодаря этому знакомству он впервые испытывает чувство любви, но...
Рейтинг:

MPAA: R - Лицам до 17 лет обязательно присутствие взрослого
Качество: UHD BDRip 2160p
Формат: MKV
Видео: HEVC, HDR, 34200 Кбит/с, 3840x1608, 23.976 кадр/с
Аудио 1: Русский, DTS 5.1, 768 kbps, 48 kHz (MVO, Супебит / Киномания)
Аудио 2: Русский, DTS 5.1, 1509 kbps, 48 kHz (AVO, А.Гаврилов)
Аудио 3: Русский, DTS 5.1, 1509 kbps, 48 kHz (AVO, Ю.Живов)
Аудио 4: Английский, AC3 5.1, 640 kbps, 48 kHz
Аудио 5: Английский, Atmos / TrueHD 7.1, 5976 kbps, 48 kHz
Навигация по главам: есть
Сезар, Франция. 1995 год.
Номинации (7):
Лучший фильм (Люк Бессон)
Лучший актер (Жан Рено)
Лучший режиссер (Люк Бессон)
Лучшая работа оператора (Тьерри Арбогаст)
Лучший звук (Бруно Тареьре)
Лучший монтаж (Сильви Ландра)
Лучший саундтрек (Эрик Серра)

Премия Японской академии. 1996 год.
Номинации (1):
Лучший иностранный фильм (Люк Бессон)

Кинопремия «Чешский лев». Чехия. 1996 год.
Победитель (1):
Лучший фильм на иностранном языке (Люк Бессон)

«Золотая катушка».Премия звуковых редакторов. США. 1995 год.
Победитель (2):
Лучший звуковой монтаж (Патрис Крисолет)
Лучший звук (Бруно Тареьре)
* Натали Портман пробовалась на роль, но была отвергнута в силу своего слишком юного возраста. Однако, неутомимая девчонка через некоторое время вновь пробилась на пробы и выдала такой спектакль, что Люк Бессон ни на секунду больше не усомнился в таланте актрисы и взял ее на роль Матильды.
* Растение в горшке, которое постоянно таскали с собой главные герои, называется аглаонема (aglaonema). По-английски слово произносится как «ag-leon-ema».
* На ту же роль пробовалась Лив Тайлер, но была признана великовозрастной для ее исполнения.
* Во время съемок произошел довольно забавный эпизод. Некий злоумышленник ограбил магазин, и бежал с добычей по улицам города. Внезапно он натолкнулся на съемочную бригаду. Увидев кучу «полицейских», он предпочел немедленно сдаться. Каково же было его удивление, когда выяснилось, что все полицейские на самом деле простые статисты на съемках кинокартины.
* Леон Гамон — известный французский изобретатель. Внес непосредственный вклад в развитие кинематографа наряду с братьями Люмьер. В честь него была названа французская кинокомпания «Gaumont», которая и выпустила данную кинокартину.
* Оригинальный сценарий содержал сцены «неловкого сексуального напряжения» между Матильдой и Леоном, включая сцену, в которой оба героя лежат на кровати, а Матильда рассуждает о сексе. Эти сцены так и не вошли в американскую версию картины, зато присутствовали в европейском варианте.
* Марка пистолета, используемого Леоном, носит название Beretta 92.
* Полное имя главного героя — Леон Монтана.
* Полная версия фильма имеет хронометраж 136 минут.
* Фильм, который Леон смотрит в кинотеатре - «Всегда хорошая погода» с Джином Келли в главной роли.
Общее
Уникальный идентификатор : 185927989910347151603817287741857540612 (0x8BE06DA6D35A1B1F859CCC19C09F2A04)
Полное имя : H:\Leon.The.Professional.1994.EXTENDED.2160p.BluRay.x265.10bit.HDR.Master5.mkv
Формат : Matroska
Версия формата : Version 4 / Version 2
Размер файла : 40,0 Гбайт
Продолжительность : 2 ч. 12 м.
Режим общего битрейта : Переменный
Общий поток : 43,0 Мбит/сек
Название фильма : Leon.The.Professional.1994.EXTENDED.2160p.BluRay.x265.10bit.HDR.Master5
Дата кодирования : UTC 2018-05-26 17:01:22
Программа кодирования : mkvmerge v8.1.0 ('Psychedelic Postcard') 32bit
Библиотека кодирования : libebml v1.3.1 + libmatroska v1.4.2

Видео
Идентификатор : 1
Формат : HEVC
Формат/Информация : High Efficiency Video Coding
Профиль формата : Main [email protected]@High
Идентификатор кодека : V_MPEGH/ISO/HEVC
Продолжительность : 2 ч. 12 м.
Битрейт : 34,2 Мбит/сек
Ширина : 3840 пикселей
Высота : 1608 пикселей
Соотношение сторон : 2,40:1
Режим частоты кадров : Постоянный
Частота кадров : 23,976 (24000/1001) кадра/сек
Цветовое пространство : YUV
Субдискретизация насыщенности : 4:2:0 (Type 2)
Битовая глубина : 10 бит
Бит/(Пиксели*Кадры) : 0.231
Размер потока : 31,7 Гбайт (79%)
Заголовок : Leon.The.Professional.1994.EXTENDED.2160p.BluRay.x265.10bit.HDR.Master5
Библиотека кодирования : x265 2.6+4-f7498acb3874:[Windows][GCC 7.2.0][64 bit] 10bit
Настройки программы : cpuid=1173503 / frame-threads=4 / numa-pools=16 / wpp / no-pmode / no-pme / no-psnr / no-ssim / log-level=2 / input-csp=1 / input-res=3840x1608 / interlace=0 / total-frames=191280 / level-idc=51 / high-tier=1 / uhd-bd=0 / ref=4 / no-allow-non-conformance / repeat-headers / annexb / aud / hrd / info / hash=0 / no-temporal-layers / no-open-gop / min-keyint=24 / keyint=240 / bframes=4 / b-adapt=2 / b-pyramid / bframe-bias=0 / rc-lookahead=25 / lookahead-slices=4 / scenecut=40 / no-intra-refresh / ctu=64 / min-cu-size=8 / rect / no-amp / max-tu-size=32 / tu-inter-depth=1 / tu-intra-depth=1 / limit-tu=0 / rdoq-level=2 / dynamic-rd=0.00 / no-ssim-rd / signhide / no-tskip / nr-intra=0 / nr-inter=0 / no-constrained-intra / no-strong-intra-smoothing / max-merge=3 / limit-refs=3 / limit-modes / me=3 / subme=3 / merange=57 / temporal-mvp / weightp / no-weightb / no-analyze-src-pics / deblock=-3:-3 / no-sao / no-sao-non-deblock / rd=4 / no-early-skip / rskip / no-fast-intra / no-tskip-fast / no-cu-lossless / no-b-intra / no-splitrd-skip / rdpenalty=0 / psy-rd=2.00 / psy-rdoq=1.00 / no-rd-refine / analysis-reuse-mode=0 / no-lossless / cbqpoffs=0 / crqpoffs=0 / rc=crf / crf=18.5 / qcomp=0.60 / qpstep=4 / stats-write=0 / stats-read=0 / vbv-maxrate=160000 / vbv-bufsize=160000 / vbv-init=0.9 / crf-max=0.0 / crf-min=0.0 / ipratio=1.40 / pbratio=1.30 / aq-mode=1 / aq-strength=1.00 / cutree / zone-count=0 / no-strict-cbr / qg-size=32 / no-rc-grain / qpmax=69 / qpmin=0 / no-const-vbv / sar=1 / overscan=0 / videoformat=5 / range=0 / colorprim=9 / transfer=16 / colormatrix=9 / chromaloc=1 / chromaloc-top=2 / chromaloc-bottom=2 / display-window=0 / master-display=G(13250,34500)B(7500,3000)R(34000,16000)WP(15635,16450)L(40000000,50) / max-cll=3696,314 / min-luma=0 / max-luma=1023 / log2-max-poc-lsb=8 / vui-timing-info / vui-hrd-info / slices=1 / opt-qp-pps / opt-ref-list-length-pps / no-multi-pass-opt-rps / scenecut-bias=0.05 / no-opt-cu-delta-qp / no-aq-motion / hdr / hdr-opt / no-dhdr10-opt / analysis-reuse-level=5 / scale-factor=0 / refine-intra=0 / refine-inter=0 / refine-mv=0 / no-limit-sao / ctu-info=0 / no-lowpass-dct / refine-mv-type=0 / copy-pic=1
Default : Да
Forced : Нет
Цветовой диапазон : Limited
Основные цвета : BT.2020
Характеристики трансфера : SMPTE ST 2084
Коэффициенты матрицы : BT.2020 non-constant
MasteringDisplay_ColorPrimaries : R: x=0.680000 y=0.320000, G: x=0.265000 y=0.690000, B: x=0.150000 y=0.060000, White point: x=0.312700 y=0.329000
MasteringDisplay_Luminance : min: 0.0050 cd/m2, max: 4000.0000 cd/m2
MaxCLL : 3696 cd/m2
MaxFALL : 314 cd/m2

Аудио #1
Идентификатор : 2
Формат : DTS
Формат/Информация : Digital Theater Systems
Режим : 16
Параметр Endianness формата : Big
Идентификатор кодека : A_DTS
Продолжительность : 2 ч. 12 м.
Вид битрейта : Постоянный
Битрейт : 768 Кбит/сек
Каналы : 6 каналов
Расположение каналов : Front: L C R, Side: L R, LFE
Частота : 48,0 КГц
Частота кадров : 93,750 кадра/сек (512 spf)
Битовая глубина : 24 бит
Метод сжатия : С потерями
Размер потока : 730 Мбайт (2%)
Заголовок : MVO, Супебит / Киномания
Язык : Russian
Default : Да
Forced : Нет

Аудио #2
Идентификатор : 3
Формат : DTS
Формат/Информация : Digital Theater Systems
Режим : 16
Параметр Endianness формата : Big
Идентификатор кодека : A_DTS
Продолжительность : 2 ч. 12 м.
Вид битрейта : Постоянный
Битрейт : 1509 Кбит/сек
Каналы : 6 каналов
Расположение каналов : Front: L C R, Side: L R, LFE
Частота : 48,0 КГц
Частота кадров : 93,750 кадра/сек (512 spf)
Битовая глубина : 24 бит
Метод сжатия : С потерями
Размер потока : 1,40 Гбайт (4%)
Заголовок : AVO, А.Гаврилов
Язык : Russian
Default : Нет
Forced : Нет

Аудио #3
Идентификатор : 4
Формат : DTS
Формат/Информация : Digital Theater Systems
Режим : 16
Параметр Endianness формата : Big
Идентификатор кодека : A_DTS
Продолжительность : 2 ч. 12 м.
Вид битрейта : Постоянный
Битрейт : 1509 Кбит/сек
Каналы : 6 каналов
Расположение каналов : Front: L C R, Side: L R, LFE
Частота : 48,0 КГц
Частота кадров : 93,750 кадра/сек (512 spf)
Битовая глубина : 24 бит
Метод сжатия : С потерями
Размер потока : 1,40 Гбайт (4%)
Заголовок : AVO, Ю.Живов
Язык : Russian
Default : Нет
Forced : Нет

Аудио #4
Идентификатор : 5
Формат : Atmos / TrueHD
Идентификатор кодека : A_TRUEHD
Продолжительность : 2 ч. 12 м.
Вид битрейта : Переменный
Битрейт : 4378 Кбит/сек
Максимальный битрейт : 5976 Кбит/сек
Каналы : Object Based / 8 каналов
Расположение каналов : Object Based / Front: L C R, Side: L R, Back: L R, LFE
Частота : / 48,0 КГц
Частота кадров : 1200,000 кадров/сек (40 spf)
Метод сжатия : Без потерь
Размер потока : 4,07 Гбайт (10%)
Заголовок : Atomos
Язык : English
Default : Нет
Forced : Нет

Аудио #5
Идентификатор : 6
Формат : AC-3
Формат/Информация : Audio Coding 3
Расширение режима : CM (complete main)
Параметр Endianness формата : Big
Идентификатор кодека : A_AC3
Продолжительность : 2 ч. 12 м.
Вид битрейта : Постоянный
Битрейт : 640 Кбит/сек
Каналы : 6 каналов
Расположение каналов : Front: L C R, Side: L R, LFE
Частота : 48,0 КГц
Частота кадров : 31,250 кадров/сек (1536 spf)
Метод сжатия : С потерями
Размер потока : 609 Мбайт (1%)
Заголовок : AC3 5.1
Язык : English
Default : Нет
Forced : Нет

Текст #1
Идентификатор : 7
Формат : UTF-8
Идентификатор кодека : S_TEXT/UTF8
Идентификатор кодека/Информация : UTF-8 Plain Text
Продолжительность : 2 ч. 6 м.
Битрейт : 56 бит/сек
Count of elements : 936
Размер потока : 52,7 Кбайт (0%)
Заголовок : License
Язык : Russian
Default : Нет
Forced : Нет

Текст #2
Идентификатор : 8
Формат : UTF-8
Идентификатор кодека : S_TEXT/UTF8
Идентификатор кодека/Информация : UTF-8 Plain Text
Продолжительность : 2 ч. 4 м.
Битрейт : 64 бит/сек
Count of elements : 1028
Размер потока : 59,3 Кбайт (0%)
Заголовок : Kinomania
Язык : Russian
Default : Нет
Forced : Нет

Текст #3
Идентификатор : 9
Формат : UTF-8
Идентификатор кодека : S_TEXT/UTF8
Идентификатор кодека/Информация : UTF-8 Plain Text
Продолжительность : 2 ч. 6 м.
Битрейт : 64 бит/сек
Count of elements : 1365
Размер потока : 59,9 Кбайт (0%)
Заголовок : Гоблин
Язык : Russian
Default : Нет
Forced : Нет

Текст #4
Идентификатор : 10
Формат : UTF-8
Идентификатор кодека : S_TEXT/UTF8
Идентификатор кодека/Информация : UTF-8 Plain Text
Продолжительность : 2 ч. 7 м.
Битрейт : 40 бит/сек
Count of elements : 250
Размер потока : 37,9 Кбайт (0%)
Заголовок : Fact Track
Язык : Russian
Default : Нет
Forced : Нет

Текст #5
Идентификатор : 11
Формат : UTF-8
Идентификатор кодека : S_TEXT/UTF8
Идентификатор кодека/Информация : UTF-8 Plain Text
Продолжительность : 2 ч. 9 м.
Битрейт : 27 бит/сек
Count of elements : 1137
Размер потока : 25,7 Кбайт (0%)
Язык : English
Default : Нет
Forced : Нет

Текст #6
Идентификатор : 12
Формат : UTF-8
Идентификатор кодека : S_TEXT/UTF8
Идентификатор кодека/Информация : UTF-8 Plain Text
Продолжительность : 2 ч. 8 м.
Битрейт : 36 бит/сек
Count of elements : 1121
Размер потока : 34,5 Кбайт (0%)
Язык : English
Default : Нет
Forced : Нет

Меню
00:00:00.000 : en:Chapter 1
00:10:00.725 : en:Chapter 2
00:17:00.936 : en:Chapter 3
00:24:18.415 : en:Chapter 4
00:30:14.312 : en:Chapter 5
00:33:54.240 : en:Chapter 6
00:42:40.307 : en:Chapter 7
00:48:07.217 : en:Chapter 8
00:55:28.450 : en:Chapter 9
01:03:51.786 : en:Chapter 10
01:08:38.489 : en:Chapter 11
01:28:29.303 : en:Chapter 12
01:36:56.060 : en:Chapter 13
01:47:43.498 : en:Chapter 14
01:53:15.788 : en:Chapter 15
02:01:08.052 : en:Chapter 16



Скачать Леон через торрент https://d.radikal.ru/d26/1805/e2/5aca5463eb9f.jpg Скачать, смотреть онлайн Леон бесплантно в хорошем качестве Описание: Профессиональный убийца Леон, не знающий пощады и жалости, знакомится со своей очаровательной соседкой Матильдой, семью которой ... 10 10 4
Info! Золотая раздача, скачанное не засчитывается.
Торрент: Зарегистрирован [2018-05-27 02:25] · скачан: 58 раз
Статус: √ проверено
Размер: 39.98 GB
Как cкачать? Как скачать Леон через торрент | UTorrent

% Раздел Тема Автор DL S | L
Фильмы (HD 720p, 1080p) (48-60 fps) [ 4.03 GB ] Леон / Léon | AVO | 1080p 10 bit 60 FPS ,AVO dd2d3 Скачать
2 | 0
Ultra HD (UHD: 2K, 4K, 8K) [ 63.19 GB ] Леон / Leon: The Professional | MVO + 4xAVO | 2160p sheker187 Скачать
1 | 0
Фильмы [HD 720p, 1080p] (Хороший звук DUB, MVO) [ 7.08 GB ] Леон / Léon | MVO | 1080p, HEVC (10bit Мичман37 Скачать
1 | 0
Ultra HD (UHD: 2K, 4K, 8K) [ 56.71 GB ] Леон / Профессионал / Léon / The Professional | Лицензия R5 | 2160p bober100 Скачать
1 | 0
Фильмы (DVD фильмы) [ 7.41 GB ] Леон / Léon, The Professional | | Леон / Léon, The Professional (Люк Бессон shuller Скачать
1 | 0
Фильмы (Blu-ray, BD-Remux, HDDVD) [ 37.97 GB ] Леон / Leon [2-in-1: Theatrical & Director's Cut | | Blu-ray, Многоголосый закадровый den7z8 Скачать
1 | 0
Фильмы до 2000 г. [ 4.35 GB ] Леон / Leon | | BDRip Anonymous Скачать
1 | 0

28-11-2019 20:33  


Отключить вcю реклaмy на сайте, в т.ч. и в плеере онлайн просмотра!

    Дорогой пользователь! Огромная просьба, поблагодарите релизера, оцените раздачу и оставьте свои комментарий, если Вы скачали Леон через торрент бесплатно!!
    Комментировать посты могут только пользователи прошедшие не сложную регистрацию
    Показать сообщения:    


    Леон через торрент
    Скачать бесплатно Леон
    Леон скачать торрент
    Леон смотреть онлайн
    Cкачать фильм Леон бесплатно
    Леон скачать торрент в хорошем качестве
    Леон смотреть онлайн бесплатно в хорошем качестве
    Вы не можете начинать темы
    Вы не можете отвечать на сообщения
    Вы не можете редактировать свои сообщения
    Вы не можете удалять свои сообщения
    Вы не можете голосовать в опросах
    Вы не можете прикреплять файлы к сообщениям
    Вы можете скачивать файлы
    Леон / Профессионал / Léon / The Professional [1994, Боевик, драма, криминал, триллер, UHD BDRip 2160p] MVO + 2xAVO [Режиссерская версия] смотреть онлайн, скачать торрент picoco.icu