Достать ножи: Стеклянная луковица

MVO

Добыча

Дубляж

Уэнсдэй

1 сезон

Тор

Дубляж

13 клиническая

1 сезон

Жестокая ночь

MVO

Одни из нас

1 сезон

Deluxe

pack

Рекомендуем

30

Пиратка

ВАЖНО

ВАЖНО

Ghostwire

Пиратка

jed

RePack

nioh2

RePack

RDR2

RePack

NEED FOR SPEED™ PAYBACK

RePack

скачать торрент

Кинопоиск HD

Острые козырьки 6 сезон

6 сезон

FAR CRY 6

RePack

скачать торрент

Лицензия

скачать торрент

MVO

1

1 сезон

скачать торрент

1 сезон

скачать торрент

Лицензия

  

Голодные игры / The Hunger Games (Гэри Росс) [2012, фантастика, триллер, приключения, UHD BDRemux 2160p] Дубляж + AVO [А. Матвеев]

Голодные игры через торрент 5050.piratbit.fun

Размер: 58.83 GB | Добавлен: 4 года 8 мес. назад | Торрент скачан:38 раз
Смотреть онлайн | Скачать | Поддержите нас   

28-05-2018 16:14 Голодные игры Скачать торрент  

Голодные игры / The Hunger Games«Весь мир смотрит»
Год выпуска: 2012
Страна: США
Жанр: фантастика, триллер, приключения
Продолжительность: 02:22:31
Перевод: Дублированный, авторский
Субтитры: русские (full - Blu-Ray, Е. Воронин, MartinaG, v4), английские (full, SDH)
Режиссер: Гэри Росс
В ролях:

Дженнифер Лоуренс (Katniss Everdeen), Джош Хатчерсон (Peeta Mellark), Лиам Хемсворт (Gale Hawthorne), Вуди Харрельсон (Haymitch Abernathy), Элизабет Бэнкс (Effie Trinket), Уэс Бентли (Seneca Crane), Дональд Сазерленд (President Snow), Стэнли Туччи (Caesar Flickerman), Ленни Кравиц (Cinna), Амандла Стенберг (Rue), Александр Людвиг (Cato), Уиллоу Шилдс (Primrose Everdeen)
Описание:
Будущее. Деспотичное государство ежегодно устраивает показательные игры на выживание, за которыми в прямом эфире следит весь мир. Жребий участвовать в Играх выпадает юной Китнисс и тайно влюбленному в нее Питу. Они знакомы с детства, но теперь должны стать врагами. Ведь по нерушимому закону Голодных игр победить может только один из 24 участников. Судьям не важно кто выиграет, главное - зрелище. И на этот раз зрелище будет незабываемым.
Рейтинг:

MPAA: PG-13 - Детям до 13 лет просмотр не желателен
Качество: UHD BDRemux 2160p
Формат: MKV
Видео: HEVC, HDR, 48749 Кбит/с, 3840x2160, 23.976 кадр/с
Аудио 1: Russian DTS-HD Master Audio / 5.1 / 48 kHz / 1920 kbps / 16-bit (DTS Core: 5.1 / 48 kHz / 1509 kbps / 16-bit) |Дубляж, Blu-Ray|
Аудио 2: Russian DTS-HD Master Audio / 7.1 / 48 kHz / 4567 kbps / 24-bit (DTS Core: 5.1 / 48 kHz / 1509 kbps / 24-bit) |А. Матвеев|
Аудио 3: English DTS-HD Master Audio / 7.1 / 48 kHz / 3598 kbps / 24-bit (DTS Core: 5.1 / 48 kHz / 1509 kbps / 24-bit) |original|
Аудио 4: English AC3 / 2.0 / 48 kHz / 224 kbps / 16 bits |Commentary by Editor Stephen Mirrione, Visual Effects Supervisor Sheena Duggal, and Sound Designer Lon Bender|
Навигация по главам: есть
Знаете ли вы, что...
* Александр Людвиг, утвержденный на роль Катона, мог сыграть роль Пита Мелларка.
* Стивен Содерберг стал режиссером второй съемочной группы фрагмента, относящегося к событиям в Одиннадцатом дистрикте.
* Ленни Кравиц, утвержденный на роль Цинны, стилиста Китнисс, на самом деле вдвое старше своего героя.
* На роль Китнисс было рассмотрено около 30 актрис, среди них — Хейли Стайнфелд, Эбигейл Бреслин, Эмма Робертс, Сирша Ронан, Хлоя Грейс Морец, Линдси Фонсека, Эмили Браунинг, Шейлин Вудли и Кая Скоделарио.
* Кроме Джоша Хатчерсона, претендентами на роль Пита были Хантер Пэрриш, Лукас Тилл и Эван Питерс.
* Кроме Лиама Хемсворта, претендентами на роль Гейла были Дэвид Генри, Робби Амелл и Дрю Рой.
Золотой глобус, 2013 год
Номинации (1):
* Лучшая песня — «Safe and Sound»
Премия канала «MTV», 2012 год
Победитель (4):
* Лучшее экранное перевоплощение (Элизабет Бэнкс)
* Лучшая драка
* Лучшая женская роль (Дженнифер Лоуренс)
* Лучшая мужская роль (Джош Хатчерсон)
Номинации (4):
* Лучший фильм
* Лучший актерский состав
* Лучший поцелуй
* Прорыв года (Лиам Хемсворт)
Общее
Уникальный идентификатор : 207559791441339932438550352816583234626 (0x9C268FCF6C223C7C550549E1042C5442)
Полное имя : H:\UHD\Голодные игры.2012.UHD.Blu-Ray.Remux.2160p.mkv
Формат : Matroska
Версия формата : Version 4 / Version 2
Размер файла : 58,8 Гбайт
Продолжительность : 2 ч. 22 м.
Общий поток : 59,1 Мбит/сек
Дата кодирования : UTC 2018-01-06 19:41:37
Программа кодирования : mkvmerge v19.0.0 ('Brave Captain') 64-bit
Библиотека кодирования : libebml v1.3.5 + libmatroska v1.4.8
Attachments : poster.jpg

Видео
Идентификатор : 1
Формат : HEVC
Формат/Информация : High Efficiency Video Coding
Профиль формата : Main [email protected]@High
Идентификатор кодека : V_MPEGH/ISO/HEVC
Продолжительность : 2 ч. 22 м.
Битрейт : 48,7 Мбит/сек
Ширина : 3840 пикселей
Высота : 2160 пикселей
Соотношение сторон : 16:9
Режим частоты кадров : Постоянный
Частота кадров : 23,976 (24000/1001) кадра/сек
Цветовое пространство : YUV
Субдискретизация насыщенности : 4:2:0 (Type 2)
Битовая глубина : 10 бит
Бит/(Пиксели*Кадры) : 0.245
Размер потока : 48,5 Гбайт (82%)
Библиотека кодирования : ATEME Titan KFE 3.7.3 (4.7.3.1003)
Язык : English
Default : Да
Forced : Нет
Цветовой диапазон : Limited
Основные цвета : BT.2020
Характеристики трансфера : PQ
Коэффициенты матрицы : BT.2020 non-constant
MasteringDisplay_ColorPrimaries : Display P3
MasteringDisplay_Luminance : min: 0.0000 cd/m2, max: 1000 cd/m2
MaxCLL : 558 cd/m2
MaxFALL : 230 cd/m2

Аудио #1
Идентификатор : 2
Формат : DTS
Формат/Информация : Digital Theater Systems
Профиль формата : MA / Core
Идентификатор кодека : A_DTS
Продолжительность : 2 ч. 22 м.
Вид битрейта : Переменный / Постоянный
Битрейт : 1920 Кбит/сек / 1509 Кбит/сек
Каналы : 6 каналов
Расположение каналов : Front: L C R, Side: L R, LFE
Частота : 48,0 КГц
Частота кадров : 93,750 кадра/сек (512 SPF)
Битовая глубина : 16 бит
Метод сжатия : Без потерь / Lossy
Размер потока : 1,95 Гбайт (3%)
Заголовок : Дубляж, Blu-Ray
Язык : Russian
Default : Да
Forced : Нет

Аудио #2
Идентификатор : 3
Формат : DTS
Формат/Информация : Digital Theater Systems
Профиль формата : MA / Core
Идентификатор кодека : A_DTS
Продолжительность : 2 ч. 22 м.
Вид битрейта : Переменный / Постоянный
Битрейт : 4567 Кбит/сек / 1509 Кбит/сек
Каналы : 8 каналов / 6 каналов
Расположение каналов : Front: L C R, Side: L R, Back: L R, LFE / Front: L C R, Side: L R, LFE
Частота : 48,0 КГц
Частота кадров : 93,750 кадра/сек (512 SPF)
Битовая глубина : 24 бит
Метод сжатия : Без потерь / Lossy
Размер потока : 4,55 Гбайт (8%)
Заголовок : А. Матвеев
Язык : English
Default : Нет
Forced : Нет

Аудио #3
Идентификатор : 4
Формат : DTS
Формат/Информация : Digital Theater Systems
Профиль формата : MA / Core
Идентификатор кодека : A_DTS
Продолжительность : 2 ч. 22 м.
Вид битрейта : Переменный / Постоянный
Битрейт : 3598 Кбит/сек / 1509 Кбит/сек
Каналы : 8 каналов / 6 каналов
Расположение каналов : Front: L C R, Side: L R, Back: L R, LFE / Front: L C R, Side: L R, LFE
Частота : 48,0 КГц
Частота кадров : 93,750 кадра/сек (512 SPF)
Битовая глубина : 24 бит
Метод сжатия : Без потерь / Lossy
Размер потока : 3,58 Гбайт (6%)
Язык : English
Default : Нет
Forced : Нет

Аудио #4
Идентификатор : 5
Формат : AC-3
Формат/Информация : Audio Coding 3
Идентификатор кодека : A_AC3
Продолжительность : 2 ч. 22 м.
Вид битрейта : Постоянный
Битрейт : 224 Кбит/сек
Каналы : 2 канала
Расположение каналов : Front: L R
Частота : 48,0 КГц
Частота кадров : 31,250 кадров/сек (1536 SPF)
Битовая глубина : 16 бит
Метод сжатия : С потерями
Размер потока : 228 Мбайт (0%)
Заголовок : Commentary by Editor Stephen Mirrione, Visual Effects Supervisor Sheena Duggal, and Sound Designer Lon Bender
Язык : English
ServiceKind/String : Complete Main
Default : Нет
Forced : Нет

Текст #1
Идентификатор : 6
Формат : UTF-8
Идентификатор кодека : S_TEXT/UTF8
Идентификатор кодека/Информация : UTF-8 Plain Text
Продолжительность : 2 ч. 11 м.
Битрейт : 54 бит/сек
ElementCount : 1081
Размер потока : 52,9 Кбайт (0%)
Заголовок : full, Blu-Ray
Язык : Russian
Default : Нет
Forced : Нет

Текст #2
Идентификатор : 7
Формат : UTF-8
Идентификатор кодека : S_TEXT/UTF8
Идентификатор кодека/Информация : UTF-8 Plain Text
Продолжительность : 2 ч. 12 м.
Битрейт : 52 бит/сек
ElementCount : 1271
Размер потока : 50,7 Кбайт (0%)
Заголовок : Е. Воронин
Язык : Russian
Default : Нет
Forced : Нет

Текст #3
Идентификатор : 8
Формат : UTF-8
Идентификатор кодека : S_TEXT/UTF8
Идентификатор кодека/Информация : UTF-8 Plain Text
Продолжительность : 2 ч. 12 м.
Битрейт : 58 бит/сек
ElementCount : 1102
Размер потока : 57,2 Кбайт (0%)
Заголовок : MartinaG
Язык : Russian
Default : Нет
Forced : Нет

Текст #4
Идентификатор : 9
Формат : UTF-8
Идентификатор кодека : S_TEXT/UTF8
Идентификатор кодека/Информация : UTF-8 Plain Text
Продолжительность : 2 ч. 12 м.
Битрейт : 51 бит/сек
ElementCount : 1267
Размер потока : 49,6 Кбайт (0%)
Заголовок : full, v4
Язык : Russian
Default : Нет
Forced : Нет

Текст #5
Идентификатор : 10
Формат : UTF-8
Идентификатор кодека : S_TEXT/UTF8
Идентификатор кодека/Информация : UTF-8 Plain Text
Продолжительность : 2 ч. 11 м.
Битрейт : 35 бит/сек
ElementCount : 1098
Размер потока : 34,7 Кбайт (0%)
Заголовок : full
Язык : English
Default : Нет
Forced : Нет

Текст #6
Идентификатор : 11
Формат : UTF-8
Идентификатор кодека : S_TEXT/UTF8
Идентификатор кодека/Информация : UTF-8 Plain Text
Продолжительность : 2 ч. 11 м.
Битрейт : 39 бит/сек
ElementCount : 1250
Размер потока : 38,1 Кбайт (0%)
Заголовок : SDH
Язык : English
Default : Нет
Forced : Нет

Меню
00:00:00.000 : en:District 12
00:10:05.813 : en:Check In
00:18:00.078 : en:Try to Win
00:25:05.879 : en:Advise
00:31:12.662 : en:First Look
00:43:28.564 : en:Shoot Straight
00:50:38.702 : en:Girl On Fire
00:56:58.915 : en:Special Girl
01:06:57.763 : en:Countdown
01:15:58.970 : en:At the Edge
01:22:06.046 : en:Very Lethal
01:29:00.418 : en:Not Going to Hurt You
01:38:00.749 : en:Trapped
01:43:19.192 : en:Young Love
01:57:56.611 : en:Only Team
02:09:26.550 : en:Star Crossed Lovers



Скачать Голодные игры через торрент https://d.radikal.ru/d18/1805/b5/6c2a814a51e2.jpg Скачать, смотреть онлайн Голодные игры бесплантно в хорошем качестве Описание: Будущее. Деспотичное государство ежегодно устраивает показательные игры на выживание, за которыми в прямом эфире следит весь мир. ... 10 10 4
Info! Золотая раздача, скачанное не засчитывается.
Торрент: Зарегистрирован [2018-05-28 16:14] · скачан: 38 раз
Статус: √ проверено
Размер: 58.83 GB
Как cкачать? Как скачать Голодные игры через торрент | UTorrent

% Раздел Тема Автор DL S | L
Сборники (HD Video) [ 23.16 GB ] Голодные игры: Трилогия / The Hunger Games: Trilogy | DUB | 720p от potroks potroks Скачать
1 | 0
Фильмы [HD 720p, 1080p] (Хороший звук DUB, MVO) [ 10.2 GB ] Голодные игры / The Hunger Games | DUB + Оригинал | 720p AlexKa Скачать
1 | 0
Сборники на DVD и Сиквелы [DVDrip, WEB-DLRip, HDrip, BDRip] [ 7.45 GB ] Голодные игры: Дилогия / The Hunger Games: Dilogy | DUB+AVO+ | BDRip-AVC GEKADOL Скачать
1 | 0
Фильмы 2012 [ 2.24 GB ] Голодные игры / The Hunger Games | DUB + Original + Sub | BDRip-AVC potroks Скачать
1 | 0
Фильмы 2012 [ 1.44 GB ] Голодные игры / The Hunger Games / 2012 / BDRip-AVC | DUB | BDRip-AVC (Гэри Росс rulya74 Скачать
2 | 0
Фильмы [HD 720p, 1080p] (Хороший звук DUB, MVO) [ 20.72 GB ] Голодные игры / The Hunger Games / 2012 / BDRip 1080p | DUB | 1080p (Гэри Росс AlexKa Скачать
1 | 0
Фильмы 2012 [ 1.46 GB ] Голодные игры / The Hunger Games | DUB | HDRip, DUB (лицензия Ворон Скачать
1 | 0

28-11-2019 20:33  


Отключить вcю реклaмy на сайте, в т.ч. и в плеере онлайн просмотра!

    Дорогой пользователь! Огромная просьба, поблагодарите релизера, оцените раздачу и оставьте свои комментарий, если Вы скачали Голодные игры через торрент бесплатно!!
    Комментировать посты могут только пользователи прошедшие не сложную регистрацию
    Показать сообщения:    


    Голодные игры через торрент
    Скачать бесплатно Голодные игры
    Голодные игры скачать торрент
    Голодные игры смотреть онлайн
    Cкачать фильм Голодные игры бесплатно
    Голодные игры скачать торрент в хорошем качестве
    Голодные игры смотреть онлайн бесплатно в хорошем качестве
    Вы не можете начинать темы
    Вы не можете отвечать на сообщения
    Вы не можете редактировать свои сообщения
    Вы не можете удалять свои сообщения
    Вы не можете голосовать в опросах
    Вы не можете прикреплять файлы к сообщениям
    Вы можете скачивать файлы
    Голодные игры / The Hunger Games [2012, фантастика, триллер, приключения, UHD BDRemux 2160p] Дубляж + AVO [А. Матвеев] смотреть онлайн, скачать торрент picoco.icu