Достать ножи: Стеклянная луковица

MVO

Добыча

Дубляж

Уэнсдэй

1 сезон

Тор

Дубляж

13 клиническая

1 сезон

Жестокая ночь

MVO

Одни из нас

1 сезон

Deluxe

pack

Рекомендуем

30

Пиратка

ВАЖНО

ВАЖНО

Ghostwire

Пиратка

jed

RePack

nioh2

RePack

RDR2

RePack

NEED FOR SPEED™ PAYBACK

RePack

скачать торрент

Кинопоиск HD

Острые козырьки 6 сезон

6 сезон

FAR CRY 6

RePack

скачать торрент

Лицензия

скачать торрент

MVO

1

1 сезон

скачать торрент

1 сезон

скачать торрент

Лицензия

  

Чудо на Гудзоне / Sully (Клинт Иствуд) [2016, драма, биография, UHD BDRemux 2160p] Дубляж + AVO [Ю. Сербин]

Чудо на Гудзоне через торрент 5050.piratbit.fun

Размер: 46.37 GB | Добавлен: 4 года 8 мес. назад | Торрент скачан:15 раз
Смотреть онлайн | Скачать | Поддержите нас   

29-05-2018 05:25 Чудо на Гудзоне Скачать торрент  

Чудо на Гудзоне / Sully«Правдивая история о чудесном спасении»
Год выпуска: 2016
Страна: США
Жанр: драма, биография
Продолжительность: 01:35:50
Перевод: Дублированный, Авторский
Субтитры: Русские, английские
Режиссер: Клинт Иствуд
В ролях:

Том Хэнкс (Chesley «Sully» Sullenberger), Аарон Экхарт (Jeff Skiles), Валери Махаффей (Diane Higgins), Делфи Хэррингтон (Lucille Palmer), Майк О’Мэлли (Charles Porter), Джейми Шеридан (Ben Edwards), Анна Ганн (Elizabeth Davis), Холт МакКэллани (Mike Cleary), Ахмед Хуссэйн (Egyptian Driver), Лора Линни (Lorrie Sullenberger), Лаура Ланди Уил (Reporter #1), Онира Саттервайт (Reporter #2)
Описание:
Произошедшее 15 января 2009 года назовут «Чудом на Гудзоне». В тот день капитан рейса 1549 Чесли Салленбергер совершил аварийную посадку самолета A320 на холодные воды реки Гудзон в Нью-Йорке. При этом никто из находившихся на борту 155 человек не пострадал. Но, несмотря на все почести со стороны общественности и СМИ, было начато расследование, которое угрожало профессиональной репутации и многолетней карьере капитана Салли.
Рейтинг:

MPAA: PG-13 - Детям до 13 лет просмотр не желателен
Качество: UHD BDRemux 2160p
Формат: MKV
Видео: HEVC, HDR, 59976 Мбит/с, 3840x2160
Аудио 1: Russian AC3 / 5.1 / 48 kHz / 448 kbps / 16 bits |Дубляж, Blu-Ray|
Аудио 2: Russian DTS-HD Master Audio / 7.1 / 48 kHz / 4437 kbps / 24-bit (DTS Core: 5.1 / 48 kHz / 1509 kbps / 24-bit) |Ю. Сербин|
Аудио 3: English DTS-HD Master Audio / 7.1 / 48 kHz / 4399 kbps / 24-bit (DTS Core: 5.1 / 48 kHz / 1509 kbps / 24-bit) |original|
Навигация по главам: есть
Общее
Уникальный идентификатор : 233373516463612394227743508449464887698 (0xAF921AB73BC8FD3A8AAFBA5C65C72992)
Полное имя : G:\HD\Чудо на Гудзоне.2016.UHD.BluRay.Remux.2160p.mkv
Формат : Matroska
Версия формата : Version 4 / Version 2
Размер файла : 46,4 Гбайт
Продолжительность : 1 ч. 35 м.
Общий поток : 69,3 Мбит/сек
Дата кодирования : UTC 2017-10-22 07:27:14
Программа кодирования : mkvmerge v17.0.0 ('Be Ur Friend') 64-bit
Библиотека кодирования : libebml v1.3.5 + libmatroska v1.4.8
Attachments : poster.jpg

Видео
Идентификатор : 1
Формат : HEVC
Формат/Информация : High Efficiency Video Coding
Профиль формата : Main [email protected]@High
Идентификатор кодека : V_MPEGH/ISO/HEVC
Продолжительность : 1 ч. 35 м.
Битрейт : 60,0 Мбит/сек
Ширина : 3840 пикселей
Высота : 2160 пикселей
Соотношение сторон : 16:9
Режим частоты кадров : Постоянный
Частота кадров : 23,976 (24000/1001) кадра/сек
Цветовое пространство : YUV
Субдискретизация насыщенности : 4:2:0 (Type 2)
Битовая глубина : 10 бит
Бит/(Пиксели*Кадры) : 0.302
Размер потока : 40,2 Гбайт (87%)
Библиотека кодирования : ATEME Titan File 3.7.8 (4.7.8.0)
Default : Да
Forced : Нет
Цветовой диапазон : Limited
Основные цвета : BT.2020
Характеристики трансфера : PQ
Коэффициенты матрицы : BT.2020 non-constant
MasteringDisplay_ColorPrimaries : R: x=0.680000 y=0.320000, G: x=0.265000 y=0.690000, B: x=0.150000 y=0.060000, White point: x=0.312700 y=0.329000
MasteringDisplay_Luminance : min: 0.0050 cd/m2, max: 4000.0000 cd/m2
MaxCLL : 4000 cd/m2
MaxFALL : 290 cd/m2

Аудио #1
Идентификатор : 2
Формат : AC-3
Формат/Информация : Audio Coding 3
Параметр Endianness формата : Big
Идентификатор кодека : A_AC3
Продолжительность : 1 ч. 35 м.
Вид битрейта : Постоянный
Битрейт : 448 Кбит/сек
Каналы : 6 каналов
Расположение каналов : Front: L C R, Side: L R, LFE
Частота : 48,0 КГц
Частота кадров : 31,250 кадров/сек (1536 SPF)
Битовая глубина : 16 бит
Метод сжатия : С потерями
Размер потока : 307 Мбайт (1%)
Заголовок : Дубляж, Blu-Ray
Язык : Russian
ServiceKind/String : Complete Main
Default : Да
Forced : Нет

Аудио #2
Идентификатор : 3
Формат : DTS
Формат/Информация : Digital Theater Systems
Профиль формата : MA / Core
Режим : 16
Параметр Endianness формата : Big
Идентификатор кодека : A_DTS
Продолжительность : 1 ч. 35 м.
Вид битрейта : Переменный / Постоянный
Битрейт : 4437 Кбит/сек / 1509 Кбит/сек
Каналы : 8 каналов / 6 каналов
Расположение каналов : Front: L C R, Side: L R, Back: L R, LFE / Front: L C R, Side: L R, LFE
Частота : 48,0 КГц
Частота кадров : 93,750 кадра/сек (512 SPF)
Битовая глубина : 24 бит
Метод сжатия : Без потерь / Lossy
Размер потока : 2,97 Гбайт (6%)
Заголовок : Ю. Сербин
Язык : Russian
Default : Нет
Forced : Нет

Аудио #3
Идентификатор : 4
Формат : DTS
Формат/Информация : Digital Theater Systems
Профиль формата : MA / Core
Режим : 16
Параметр Endianness формата : Big
Идентификатор кодека : A_DTS
Продолжительность : 1 ч. 35 м.
Вид битрейта : Переменный / Постоянный
Битрейт : 4399 Кбит/сек / 1509 Кбит/сек
Каналы : 8 каналов / 6 каналов
Расположение каналов : Front: L C R, Side: L R, Back: L R, LFE / Front: L C R, Side: L R, LFE
Частота : 48,0 КГц
Частота кадров : 93,750 кадра/сек (512 SPF)
Битовая глубина : 24 бит
Метод сжатия : Без потерь / Lossy
Размер потока : 2,94 Гбайт (6%)
Язык : English
Default : Нет
Forced : Нет

Текст #1
Идентификатор : 5
Формат : UTF-8
Идентификатор кодека : S_TEXT/UTF8
Идентификатор кодека/Информация : UTF-8 Plain Text
Продолжительность : 1 ч. 28 м.
Битрейт : 4 бит/сек
ElementCount : 45
Размер потока : 2,73 Кбайт (0%)
Заголовок : forced
Язык : Russian
Default : Да
Forced : Нет

Текст #2
Идентификатор : 6
Формат : UTF-8
Идентификатор кодека : S_TEXT/UTF8
Идентификатор кодека/Информация : UTF-8 Plain Text
Продолжительность : 1 ч. 31 м.
Битрейт : 113 бит/сек
ElementCount : 1157
Размер потока : 76,6 Кбайт (0%)
Заголовок : full
Язык : Russian
Default : Нет
Forced : Нет

Текст #3
Идентификатор : 7
Формат : UTF-8
Идентификатор кодека : S_TEXT/UTF8
Идентификатор кодека/Информация : UTF-8 Plain Text
Продолжительность : 1 ч. 35 м.
Битрейт : 74 бит/сек
ElementCount : 1537
Размер потока : 52,1 Кбайт (0%)
Заголовок : full
Язык : English
Default : Нет
Forced : Нет

Текст #4
Идентификатор : 8
Формат : UTF-8
Идентификатор кодека : S_TEXT/UTF8
Идентификатор кодека/Информация : UTF-8 Plain Text
Продолжительность : 1 ч. 35 м.
Битрейт : 81 бит/сек
ElementCount : 1642
Размер потока : 57,2 Кбайт (0%)
Заголовок : SDH
Язык : English
Default : Нет
Forced : Нет

Меню
00:00:00.000 : en:Chapter 01
00:11:12.505 : en:Chapter 02
00:18:06.168 : en:Chapter 03
00:29:57.921 : en:Chapter 04
00:38:55.416 : en:Chapter 05
00:49:20.749 : en:Chapter 06
01:00:50.856 : en:Chapter 07
01:08:16.384 : en:Chapter 08
01:18:09.810 : en:Chapter 09
01:26:59.798 : en:Chapter 10



Скачать Чудо на Гудзоне через торрент https://c.radikal.ru/c20/1805/34/c7619281366c.png Скачать, смотреть онлайн Чудо на Гудзоне бесплантно в хорошем качестве Описание: Произошедшее 15 января 2009 года назовут «Чудом на Гудзоне». В тот день капитан рейса 1549 Чесли Салленбергер совершил аварийную ... 10 10 2
Торрент: Зарегистрирован [2018-05-29 05:25] · скачан: 15 раз
Статус: √ проверено
Размер: 46.37 GB
Как cкачать? Как скачать Чудо на Гудзоне через торрент | UTorrent

% Раздел Тема Автор DL S | L
Ultra HD (UHD: 2K, 4K, 8K) [ 45.48 GB ] Чудо на Гудзоне / Sully | Лицензия | 2160p bober100 Скачать
1 | 0
Фильмы с авторской озвучкой [ 2.01 GB ] Чудо на Гудзоне / Sully | AVO | BDRip killermax2013 Скачать
1 | 0
Фильмы 2016 [DVDrip, WEB-DLRip, HDrip] (DUB, MVO) [ 1.42 GB ] Чудо на Гудзоне / Sully | Лицензия | BDRip Twi7ter Скачать
1 | 0
Фильмы (Blu-ray, BD-Remux, HDDVD) [ 32.85 GB ] Чудо на Гудзоне / Sully | | 1080p CEE voovaz Скачать
1 | 0
Фильмы 2016 [DVDrip, WEB-DLRip, HDrip] (DUB, MVO) [ 1.46 GB ] Чудо на Гудзоне / Sully | Лицензия | BDRip Twi7ter Скачать
1 | 0
Фильмы [HD 720p, 1080p] (Хороший звук DUB, MVO) [ 8.19 GB ] Чудо на Гудзоне / Sully | Лицензия | 1080p -Lexx- Скачать
1 | 0
R.G. Resident & PiratVoice - Фильмы, Видео [ 1.95 GB ] Чудо на Гудзоне / Sully | Лицензия | BDRip-AVC Хорват Скачать
1 | 0

28-11-2019 20:33  


Отключить вcю реклaмy на сайте, в т.ч. и в плеере онлайн просмотра!

    Дорогой пользователь! Огромная просьба, поблагодарите релизера, оцените раздачу и оставьте свои комментарий, если Вы скачали Чудо на Гудзоне через торрент бесплатно!!
    Комментировать посты могут только пользователи прошедшие не сложную регистрацию
    Показать сообщения:    


    Чудо на Гудзоне через торрент
    Скачать бесплатно Чудо на Гудзоне
    Чудо на Гудзоне скачать торрент
    Чудо на Гудзоне смотреть онлайн
    Cкачать фильм Чудо на Гудзоне бесплатно
    Чудо на Гудзоне скачать торрент в хорошем качестве
    Чудо на Гудзоне смотреть онлайн бесплатно в хорошем качестве
    Вы не можете начинать темы
    Вы не можете отвечать на сообщения
    Вы не можете редактировать свои сообщения
    Вы не можете удалять свои сообщения
    Вы не можете голосовать в опросах
    Вы не можете прикреплять файлы к сообщениям
    Вы можете скачивать файлы
    Чудо на Гудзоне / Sully [2016, драма, биография, UHD BDRemux 2160p] Дубляж + AVO [Ю. Сербин] смотреть онлайн, скачать торрент picoco.icu