Доктор Стрэндж

Лицензия

Добыча

Дубляж

Дом дракона

1 сезон

Тор

Дубляж

В эфире

Дубляж

Там, где раки поют

MVO

Властелин колец

1 сезон

Ultimate

pack

Рекомендуем

30

Пиратка

ВАЖНО

ВАЖНО

Ghostwire

Пиратка

jed

RePack

nioh2

RePack

RDR2

RePack

NEED FOR SPEED™ PAYBACK

RePack

скачать торрент

Кинопоиск HD

Острые козырьки 6 сезон

6 сезон

FAR CRY 6

RePack

скачать торрент

Лицензия

скачать торрент

MVO

1

1 сезон

скачать торрент

1 сезон

скачать торрент

Лицензия

  

Невезучие / La chèvre (Франсис Вебер / Francis Veber) [1981, комедия, криминал, приключения, HDTVRip-AVC] [Дубляж] [MVO] [DVO]

Невезучие через торрент 5050.piratbit.fun

Раздают: 1 [ 0 KB/s ]
Размер: 1.86 GB | Добавлен: 3 года 7 мес. назад | Торрент скачан:10 раз
Смотреть онлайн | Скачать   

22-04-2019 18:36 Невезучие Скачать торрент  

Невезучие
La chèvre

«They're back! The comedy team beyond Comperes!»

Страна: Франция, Мексика, Мальта
Жанр: комедия, криминал, приключения

Год выпуска: 1981
Продолжительность: 01:29:48

Перевод №1: Профессиональный (полное дублирование) [Советский дубляж со вставками MVO]
Перевод №2: Профессиональный (многоголосый, закадровый) [Позитив Мультимедиа]
Перевод №3: Профессиональный (двухголосый, закадровый) [ТВЦ]
Перевод №4: Профессиональный (многоголосый, закадровый) [ОРТ]
Субтитры: русские, английские, французские
Оригинальная аудиодорожка: французский

Режиссер: Франсис Вебер / Francis Veber

В ролях: Пьер Ришар, Жерар Депардье, Педро Армендарис мл., Коринн Шарби, Марица Оливарес, Андре Валарди, Хорхе Луке, Серхио Кальдерон, Мишель Робен, Робер Дальбан, Жаклин Ноэль, Мишель Фортен

Описание: Существует тип людей, страдающих хроническим невезением. Они опаздывают на поезда, проливают красное вино на белую одежду, на них падают кирпичи. Единственная дочь миллионера Мари, как раз из таких. Не повезло ей в очередной раз - пропала где-то в Латинской Америке.



Автор рипа: stalkerok

Сэмпл

Качество видео: HDTVRip-AVC [La.chevre.1981.720p.HDTV.2xRus.Fr.HDCLUB]
Формат видео: MKV
Видео кодек: AVC
Аудио кодек: AC3
Видео: AVC, 1976 Кбит/сек, 846x508 (5:3), 25 кадр/сек
Аудио №1: AC3, 192 Кбит/сек, 48 КГц, 2.0 - русский | Советский дубляж со вставками MVO
Аудио №2: AC3, 192 Кбит/сек, 48 КГц, 2.0 - русский | Позитив Мультимедиа
Аудио №3: AC3, 192 Кбит/сек, 48 КГц, 2.0 - русский | ТВЦ | отдельно
Аудио №4: AC3, 192 Кбит/сек, 48 КГц, 2.0 - русский | ОРТ | отдельно
Аудио №5: AC3, 224 Кбит/сек, 48 КГц, 2.0 - французский | отдельно
---[Information] [21.04.2019 16:19:03] x264 [info]: frame I:887 Avg QP:19.83 size: 59660
---[Information] [21.04.2019 16:19:03] x264 [info]: frame P:29962 Avg QP:21.34 size: 21124
---[Information] [21.04.2019 16:19:03] x264 [info]: frame B:103827 Avg QP:23.78 size: 6211

General
Unique ID : 193618590240540899355849768547441116557 (0x91A99585D6184980399B16686313058D)
Complete name : M:\temp\La Chevre\La.Chevre.1981.HDTVRip.x264.4xRus.Fre.stalkerok.New-Team\La.Chevre.1981.mkv
Format : Matroska
Format version : Version 4
File size : 1.48 GiB
Duration : 1 h 29 min
Overall bit rate : 2 362 kb/s
Movie name : La chèvre (La Chevre) (1981) | Rip by stalkerok
Encoded date : UTC 2019-04-22 11:17:08
Writing application : mkvmerge v33.1.0 ('Primrose') 64-bit
Writing library : libebml v1.3.7 + libmatroska v1.5.0

Video
ID : 1
Format : AVC
Format/Info : Advanced Video Codec
Format profile : [email protected]
Format settings : CABAC / 12 Ref Frames
Format settings, CABAC : Yes
Format settings, RefFrames : 12 frames
Codec ID : V_MPEG4/ISO/AVC
Duration : 1 h 29 min
Bit rate : 1 976 kb/s
Width : 846 pixels
Height : 508 pixels
Display aspect ratio : 5:3
Frame rate mode : Constant
Frame rate : 25.000 FPS
Color space : YUV
Chroma subsampling : 4:2:0
Bit depth : 8 bits
Scan type : Progressive
Bits/(Pixel*Frame) : 0.184
Stream size : 1.24 GiB (84%)
Title : La chèvre (La Chevre) (1981) | Rip by stalkerok
Writing library : x264 core 157 r2969 d4099dd
Encoding settings : cabac=1 / ref=12 / deblock=1:-2:-1 / analyse=0x3:0x133 / me=umh / subme=10 / psy=1 / psy_rd=1.00:0.00 / mixed_ref=1 / me_range=32 / chroma_me=1 / trellis=2 / 8x8dct=1 / cqm=0 / deadzone=21,11 / fast_pskip=0 / chroma_qp_offset=-2 / threads=12 / lookahead_threads=3 / sliced_threads=0 / nr=0 / decimate=1 / interlaced=0 / bluray_compat=0 / constrained_intra=0 / bframes=14 / b_pyramid=2 / b_adapt=2 / b_bias=0 / direct=3 / weightb=1 / open_gop=0 / weightp=2 / keyint=250 / keyint_min=25 / scenecut=40 / intra_refresh=0 / rc_lookahead=60 / rc=crf / mbtree=0 / crf=20.1 / qcomp=0.65 / qpmin=0 / qpmax=69 / qpstep=4 / vbv_maxrate=50000 / vbv_bufsize=62500 / crf_max=0.0 / nal_hrd=none / filler=0 / ip_ratio=1.40 / pb_ratio=1.30 / aq=3:0.90
Default : Yes
Forced : No

Audio #1
ID : 2
Format : AC-3
Format/Info : Audio Coding 3
Commercial name : Dolby Digital
Codec ID : A_AC3
Duration : 1 h 29 min
Bit rate mode : Constant
Bit rate : 192 kb/s
Channel(s) : 2 channels
Channel layout : L R
Sampling rate : 48.0 kHz
Frame rate : 31.250 FPS (1536 SPF)
Bit depth : 16 bits
Compression mode : Lossy
Stream size : 123 MiB (8%)
Title : Дубляж
Language : Russian
Service kind : Complete Main
Default : Yes
Forced : No

Audio #2
ID : 3
Format : AC-3
Format/Info : Audio Coding 3
Commercial name : Dolby Digital
Codec ID : A_AC3
Duration : 1 h 29 min
Bit rate mode : Constant
Bit rate : 192 kb/s
Channel(s) : 2 channels
Channel layout : L R
Sampling rate : 48.0 kHz
Frame rate : 31.250 FPS (1536 SPF)
Bit depth : 16 bits
Compression mode : Lossy
Stream size : 123 MiB (8%)
Title : MVO Pozitive-Multimedia
Language : Russian
Service kind : Complete Main
Default : No
Forced : No

Text #1
ID : 4
Format : UTF-8
Codec ID : S_TEXT/UTF8
Codec ID/Info : UTF-8 Plain Text
Duration : 1 h 25 min
Bit rate : 82 b/s
Count of elements : 998
Stream size : 52.0 KiB (0%)
Language : Russian
Default : No
Forced : No

Text #2
ID : 5
Format : UTF-8
Codec ID : S_TEXT/UTF8
Codec ID/Info : UTF-8 Plain Text
Duration : 1 h 27 min
Bit rate : 54 b/s
Count of elements : 999
Stream size : 34.6 KiB (0%)
Language : French
Default : No
Forced : No

Text #3
ID : 6
Format : UTF-8
Codec ID : S_TEXT/UTF8
Codec ID/Info : UTF-8 Plain Text
Duration : 1 h 28 min
Bit rate : 37 b/s
Count of elements : 886
Stream size : 24.5 KiB (0%)
Language : English
Default : No
Forced : No



Скачать Невезучие через торрент http://i6-imageban-ru.translate.goog/out/2017/09/18/2ff75c0c358795c5946784cc1680714d.png Скачать, смотреть онлайн Невезучие бесплантно в хорошем качестве Описание: Существует людей, страдающих хроническим невезением. Они опаздывают на поезда, проливают красное вино на белую одежду, на них ... 10 10 2
Info! Золотая раздача, скачанное не засчитывается.
Торрент: Зарегистрирован [2019-04-22 18:36] · скачан: 10 раз
Статус: √ проверено
Размер: 1.86 GB
Как cкачать? Как скачать Невезучие через торрент | UTorrent

% Раздел Тема Автор DL S | L
Классика зарубежного кино [ 2.65 GB ] Невезучие / La chèvre | MVO | BDRip-AVC sokol_ok Скачать
2 | 0
Классика зарубежного кино [ 1.45 GB ] Невезучие / La chèvre | MVO | BDRip-AVC sokol_ok Скачать
2 | 0

28-11-2019 20:33  


Отключить вcю реклaмy на сайте, в т.ч. и в плеере онлайн просмотра!

    Дорогой пользователь! Огромная просьба, поблагодарите релизера, оцените раздачу и оставьте свои комментарий, если Вы скачали Невезучие через торрент бесплатно!!
    Комментировать посты могут только пользователи прошедшие не сложную регистрацию
    Показать сообщения:    


    Невезучие через торрент
    Скачать бесплатно Невезучие
    Невезучие скачать торрент
    Невезучие смотреть онлайн
    Cкачать фильм Невезучие бесплатно
    Невезучие скачать торрент в хорошем качестве
    Невезучие смотреть онлайн бесплатно в хорошем качестве
    Вы не можете начинать темы
    Вы не можете отвечать на сообщения
    Вы не можете редактировать свои сообщения
    Вы не можете удалять свои сообщения
    Вы не можете голосовать в опросах
    Вы не можете прикреплять файлы к сообщениям
    Вы можете скачивать файлы
    Невезучие / La chèvre [1981, комедия, криминал, приключения, HDTVRip-AVC] [Дубляж] [MVO] [DVO] смотреть онлайн, скачать торрент picoco.icu