Доктор Стрэндж

Лицензия

Добыча

Дубляж

Уэнсдэй

1 сезон

Тор

Дубляж

В эфире

Дубляж

Там, где раки поют

MVO

Властелин колец

1 сезон

Deluxe

pack

Рекомендуем

30

Пиратка

ВАЖНО

ВАЖНО

Ghostwire

Пиратка

jed

RePack

nioh2

RePack

RDR2

RePack

NEED FOR SPEED™ PAYBACK

RePack

скачать торрент

Кинопоиск HD

Острые козырьки 6 сезон

6 сезон

FAR CRY 6

RePack

скачать торрент

Лицензия

скачать торрент

MVO

1

1 сезон

скачать торрент

1 сезон

скачать торрент

Лицензия

  

Газовый свет / Gaslight (Джордж Кьюкор) [1944, драма, криминал, детектив, триллер, BDRip 720p ] MVO, 4 x DVO

Газовый свет через торрент 5050.piratbit.fun

Раздают: 1 [ 0 KB/s ]
Размер: 4.5 GB | Добавлен: 3 года 4 мес. назад | Торрент скачан:14 раз
Смотреть онлайн | Скачать   

09-07-2019 08:27 Газовый свет Скачать торрент  

Название: Газовый свет
Оригинальное название: Gaslight
Год выпуска: 1944
Страна: США
Жанр: драма, криминал, детектив, триллер
Продолжительность: 01:53:47
Перевод: профессиональный многоголосый, профессиональный двухголосый

Режиссер: Джордж Кьюкор
В ролях: Ингрид Бергман, Шарль Буайе, Джозеф Коттен, Анджела Лэнсбери, Барбара Эверест, Терри Мур, Мэй Уитти, Эдмунд Бреон, Эмиль Рамо, Хэллиуэлл Хоббс, Том Стивенсон, Хэзер Тэтчер, Лоренс Гроссмит, Джейкоб Джимпел, Гари Грэй, Лиллиэн Бронсон, Леонард Кэри, Алек Крэйг, Мод Фили, Гибсон Гоуленд

Описание: Десять лет Пола боялась вернуться в Лондон, где была убита её тётя. Наконец, выйдя замуж за пианиста Грегори и поддавшись его уговорам, она решает переехать в Лондон и поселиться в том самом доме. С течением времени жизнерадостной красавице Поле начинает казаться, что она сходит с ума в его стенах. И горячо любимый муж Грегори ведёт себя более чем странно... Фильм снят по одноимённой пьесе Патрика Гамильтона (1938).



Качество: BDRip 720p
Формат: MKV
Видео: MPEG-4 AVC, 4500 Кбит/с, 988x720, 23.976 кадр/с
Аудио 1: русский, AC3, 192 kbps, 2 ch, 48 kHz [закадровый многоголосый, Film-Prestige]
Аудио 2: русский, AC3, 192 kbps, 2 ch, 48 kHz [закадровый двухголосый, R5]
Аудио 3: русский, AC3, 192 kbps, 2 ch, 48 kHz [закадровый двухголосый, SomeWax]
Аудио 4: русский, AC3, 192 kbps, 2 ch, 48 kHz [закадровый двухголосый, т|к Культура]
Аудио 5: русский, AC3, 192 kbps, 2 ch, 48 kHz [закадровый двухголосый, DVD-Classic]
Аудио 6: английский, AC3, 192 kbps, 2 ch, 48 kHz [оригинал]
Субтитры 1: русские
Субтитры 2: английские
Главы/чаптеры
Общее
Уникальный идентификатор : 172001961879821633194098830435718981001 (0x81665F7592A95FC19CF91D84766EE589)
Полное имя : D:\Video\Газовый свет.1944.BDRip 720p by msltel.mkv
Формат : Matroska
Версия формата : Version 4
Размер файла : 4,50 Гбайт
Продолжительность : 1 ч. 53 м.
Общий поток : 5656 Кбит/сек
Название фильма : Rip by msltel
Дата кодирования : UTC 2019-07-09 07:43:43
Программа кодирования : mkvmerge v8.2.0 ('World of Adventure') 64bit
Библиотека кодирования : libebml v1.3.1 + libmatroska v1.4.2

Видео
Идентификатор : 1
Формат : AVC
Формат/Информация : Advanced Video Codec
Профиль формата : [email protected]
Настройки формата : CABAC / 9 Ref Frames
Параметр CABAC формата : Да
Параметр RefFrames формата : 9 кадров
Идентификатор кодека : V_MPEG4/ISO/AVC
Продолжительность : 1 ч. 53 м.
Битрейт : 4500 Кбит/сек
Ширина : 988 пикселей
Высота : 720 пикселей
Соотношение сторон : 1,372
Режим частоты кадров : Постоянный
Частота кадров : 23,976 (24000/1001) кадра/сек
Цветовое пространство : YUV
Субдискретизация насыщенности : 4:2:0
Битовая глубина : 8 бит
Тип развёртки : Прогрессивная
Бит/(Пиксели*Кадры) : 0.264
Размер потока : 3,58 Гбайт (80%)
Библиотека кодирования : x264 core 157 r2935 545de2f
Настройки программы : cabac=1 / ref=9 / deblock=1:-2:-2 / analyse=0x3:0x113 / me=umh / subme=11 / psy=1 / psy_rd=1.00:0.15 / mixed_ref=1 / me_range=32 / chroma_me=1 / trellis=2 / 8x8dct=1 / cqm=0 / deadzone=21,11 / fast_pskip=0 / chroma_qp_offset=-3 / threads=6 / lookahead_threads=1 / sliced_threads=0 / nr=0 / decimate=1 / interlaced=0 / bluray_compat=0 / constrained_intra=0 / bframes=9 / b_pyramid=2 / b_adapt=2 / b_bias=0 / direct=1 / weightb=1 / open_gop=0 / weightp=2 / keyint=230 / keyint_min=23 / scenecut=40 / intra_refresh=0 / rc_lookahead=40 / rc=crf / mbtree=1 / crf=20.0 / qcomp=0.60 / qpmin=0 / qpmax=69 / qpstep=4 / vbv_maxrate=50000 / vbv_bufsize=62500 / crf_max=0.0 / nal_hrd=none / filler=0 / ip_ratio=1.40 / aq=1:1.00
Язык : English
Default : Да
Forced : Нет

Аудио #1
Идентификатор : 2
Формат : AC-3
Формат/Информация : Audio Coding 3
Коммерческое название : Dolby Digital
Идентификатор кодека : A_AC3
Продолжительность : 1 ч. 53 м.
Вид битрейта : Постоянный
Битрейт : 192 Кбит/сек
Каналы : 2 канала
ChannelLayout : L R
Частота : 48,0 КГц
Частота кадров : 31,250 кадров/сек (1536 SPF)
Битовая глубина : 16 бит
Метод сжатия : С потерями
Размер потока : 156 Мбайт (3%)
Заголовок : MVO Film-Prestige
Язык : Russian
ServiceKind/String : Complete Main
Default : Да
Forced : Нет

Аудио #2
Идентификатор : 3
Формат : AC-3
Формат/Информация : Audio Coding 3
Коммерческое название : Dolby Digital
Идентификатор кодека : A_AC3
Продолжительность : 1 ч. 53 м.
Вид битрейта : Постоянный
Битрейт : 192 Кбит/сек
Каналы : 2 канала
ChannelLayout : L R
Частота : 48,0 КГц
Частота кадров : 31,250 кадров/сек (1536 SPF)
Битовая глубина : 16 бит
Метод сжатия : С потерями
Размер потока : 156 Мбайт (3%)
Заголовок : DVO R5
Язык : Russian
ServiceKind/String : Complete Main
Default : Нет
Forced : Нет

Аудио #3
Идентификатор : 4
Формат : AC-3
Формат/Информация : Audio Coding 3
Коммерческое название : Dolby Digital
Идентификатор кодека : A_AC3
Продолжительность : 1 ч. 53 м.
Вид битрейта : Постоянный
Битрейт : 192 Кбит/сек
Каналы : 2 канала
ChannelLayout : L R
Частота : 48,0 КГц
Частота кадров : 31,250 кадров/сек (1536 SPF)
Битовая глубина : 16 бит
Метод сжатия : С потерями
Размер потока : 156 Мбайт (3%)
Заголовок : DVO SomeWax
Язык : Russian
ServiceKind/String : Complete Main
Default : Нет
Forced : Нет

Аудио #4
Идентификатор : 5
Формат : AC-3
Формат/Информация : Audio Coding 3
Коммерческое название : Dolby Digital
Идентификатор кодека : A_AC3
Продолжительность : 1 ч. 53 м.
Вид битрейта : Постоянный
Битрейт : 192 Кбит/сек
Каналы : 2 канала
ChannelLayout : L R
Частота : 48,0 КГц
Частота кадров : 31,250 кадров/сек (1536 SPF)
Битовая глубина : 16 бит
Метод сжатия : С потерями
Размер потока : 156 Мбайт (3%)
Заголовок : DVO т/к Культура
Язык : Russian
ServiceKind/String : Complete Main
Default : Нет
Forced : Нет

Аудио #5
Идентификатор : 6
Формат : AC-3
Формат/Информация : Audio Coding 3
Коммерческое название : Dolby Digital
Идентификатор кодека : A_AC3
Продолжительность : 1 ч. 53 м.
Вид битрейта : Постоянный
Битрейт : 192 Кбит/сек
Каналы : 2 канала
ChannelLayout : L R
Частота : 48,0 КГц
Частота кадров : 31,250 кадров/сек (1536 SPF)
Битовая глубина : 16 бит
Метод сжатия : С потерями
Размер потока : 156 Мбайт (3%)
Заголовок : DVO DVD-Classic
Язык : Russian
ServiceKind/String : Complete Main
Default : Нет
Forced : Нет

Аудио #6
Идентификатор : 7
Формат : AC-3
Формат/Информация : Audio Coding 3
Коммерческое название : Dolby Digital
Идентификатор кодека : A_AC3
Продолжительность : 1 ч. 53 м.
Вид битрейта : Постоянный
Битрейт : 192 Кбит/сек
Каналы : 2 канала
ChannelLayout : L R
Частота : 48,0 КГц
Частота кадров : 31,250 кадров/сек (1536 SPF)
Битовая глубина : 16 бит
Метод сжатия : С потерями
Размер потока : 156 Мбайт (3%)
Заголовок : original
Язык : English
ServiceKind/String : Complete Main
Default : Нет
Forced : Нет

Текст #1
Идентификатор : 8
Формат : UTF-8
Идентификатор кодека : S_TEXT/UTF8
Идентификатор кодека/Информация : UTF-8 Plain Text
Продолжительность : 1 ч. 51 м.
Битрейт : 84 бит/сек
ElementCount : 1289
Размер потока : 68,9 Кбайт (0%)
Заголовок : русские
Язык : Russian
Default : Нет
Forced : Нет

Текст #2
Идентификатор : 9
Формат : UTF-8
Идентификатор кодека : S_TEXT/UTF8
Идентификатор кодека/Информация : UTF-8 Plain Text
Продолжительность : 1 ч. 51 м.
Битрейт : 72 бит/сек
ElementCount : 2173
Размер потока : 59,0 Кбайт (0%)
Заголовок : английские
Язык : English
Default : Нет
Forced : Нет

Меню
00:00:00.000 : en:Chapter 01
00:01:13.156 : en:Chapter 02
00:03:02.932 : en:Chapter 03
00:08:19.749 : en:Chapter 04
00:11:21.222 : en:Chapter 05
00:15:44.902 : en:Chapter 06
00:21:13.021 : en:Chapter 07
00:23:53.348 : en:Chapter 08
00:26:47.314 : en:Chapter 09
00:28:52.230 : en:Chapter 10
00:32:56.724 : en:Chapter 11
00:36:53.044 : en:Chapter 12
00:39:23.569 : en:Chapter 13
00:43:01.579 : en:Chapter 14
00:47:08.492 : en:Chapter 15
00:48:58.310 : en:Chapter 16
00:51:23.121 : en:Chapter 17
00:56:41.981 : en:Chapter 18
01:01:01.324 : en:Chapter 19
01:05:48.361 : en:Chapter 20
01:09:14.191 : en:Chapter 21
01:12:18.625 : en:Chapter 22
01:16:29.876 : en:Chapter 23
01:19:14.916 : en:Chapter 24
01:22:11.426 : en:Chapter 25
01:25:19.697 : en:Chapter 26
01:30:54.782 : en:Chapter 27
01:34:50.142 : en:Chapter 28
01:37:17.915 : en:Chapter 29
01:43:10.184 : en:Chapter 30
01:46:30.258 : en:Chapter 31
01:51:24.719 : en:Chapter 32
01:53:14.537 : en:Chapter 33



Скачать Газовый свет через торрент https://c.radikal.ru/c15/1907/61/aba826e85487.jpg Скачать, смотреть онлайн Газовый свет бесплантно в хорошем качестве Описание: Десять лет Пола боялась вернуться в Лондон, где была убита её тётя. Наконец, выйдя замуж за пианиста Грегори и поддавшись его ... 5 10 1
Info! Золотая раздача, скачанное не засчитывается.
Торрент: Зарегистрирован [2019-07-09 08:27] · скачан: 14 раз
Статус: √ проверено
Размер: 4.5 GB
Как cкачать? Как скачать Газовый свет через торрент | UTorrent

% Раздел Тема Автор DL S | L
Классика зарубежного кино [ 11.95 GB ] Газовый свет / Gaslight | MVO | 1080p msltel Скачать
1 | 0

28-11-2019 20:33  


Отключить вcю реклaмy на сайте, в т.ч. и в плеере онлайн просмотра!

11-07-2019 06:07 Газовый свет Скачать торрент  

    Дорогой пользователь! Огромная просьба, поблагодарите релизера, оцените раздачу и оставьте свои комментарий, если Вы скачали Газовый свет через торрент бесплатно!!
    Комментировать посты могут только пользователи прошедшие не сложную регистрацию
    Показать сообщения:    


    Газовый свет через торрент
    Скачать бесплатно Газовый свет
    Газовый свет скачать торрент
    Газовый свет смотреть онлайн
    Cкачать фильм Газовый свет бесплатно
    Газовый свет скачать торрент в хорошем качестве
    Газовый свет смотреть онлайн бесплатно в хорошем качестве
    Вы не можете начинать темы
    Вы не можете отвечать на сообщения
    Вы не можете редактировать свои сообщения
    Вы не можете удалять свои сообщения
    Вы не можете голосовать в опросах
    Вы не можете прикреплять файлы к сообщениям
    Вы можете скачивать файлы
    Газовый свет / Gaslight [1944, драма, криминал, детектив, триллер, BDRip 720p ] MVO, 4 x DVO смотреть онлайн, скачать торрент picoco.icu