Доктор Стрэндж

Лицензия

Добыча

Дубляж

Уэнсдэй

1 сезон

Тор

Дубляж

В эфире

Дубляж

Там, где раки поют

MVO

Властелин колец

1 сезон

Deluxe

pack

Рекомендуем

30

Пиратка

ВАЖНО

ВАЖНО

Ghostwire

Пиратка

jed

RePack

nioh2

RePack

RDR2

RePack

NEED FOR SPEED™ PAYBACK

RePack

скачать торрент

Кинопоиск HD

Острые козырьки 6 сезон

6 сезон

FAR CRY 6

RePack

скачать торрент

Лицензия

скачать торрент

MVO

1

1 сезон

скачать торрент

1 сезон

скачать торрент

Лицензия

  

Слепой ужас / See No Evil (Ричард Флейшер) [1971, триллер, детектив, BDRip 1080p ] MVO

Слепой ужас через торрент 5050.piratbit.fun

Размер: 12.05 GB | Добавлен: 3 года 3 мес. назад | Торрент скачан:11 раз
Смотреть онлайн | Скачать   

23-08-2019 06:02 Слепой ужас Скачать торрент  

Название: Слепой ужас
Оригинальное название: See No Evil
Год выпуска: 1971
Страна: Великобритания
Жанр: триллер, детектив
Продолжительность: 01:29:11
Перевод: профессиональный многоголосый

Режиссер: Ричард Флейшер
В ролях: Миа Фэрроу, Дороти Элисон, Робин Бэйли, Дайан Грэйсон, Брайан Роулинсон, Норман Эшли, Пол Николас, Кристофер Мэтьюз, Макс Фолкнер

Описание: Сара недавно упала с лошади и ослепла. Однажды она приезжает на ферму к своему дяде и отправляется погулять со своим другом Стивом. В это время в дом проникает маньяк и хладнокровно убивает её родственников. Сара возвращается в дом, но так как она ничего не может видеть, она не подозревает о нахождении в доме кучи мёртвых тел. Тем временем убийца вспоминает, что оставил на месте преступления важную улику и возвращается...



Качество: BDRip 1080p
Формат: MKV
Видео: MPEG4 (AVC), 19 Mбит/с, 1920x1036
Аудио 1: русский, AC3, 192 kbps, 2 ch, 48 kHz [закадровый многоголосый, Петербург 5-й канал]
Аудио 2: английский, AC3, 192 kbps, 1 ch, 48 kHz [оригинал]
Субтитры 2: английские
Главы/чаптеры
Общее
Уникальный идентификатор : 245453353512022854866489165280668881224 (0xB8A898AA41A5E96D9945144C26C11148)
Полное имя : D:\Video\Слепой ужас.1971.BDRip 1080p by msltel.mkv
Формат : Matroska
Версия формата : Version 4
Размер файла : 12,0 Гбайт
Продолжительность : 1 ч. 29 м.
Общий поток : 19,3 Мбит/сек
Название фильма : Rip by msltel
Дата кодирования : UTC 2019-08-22 12:46:40
Программа кодирования : mkvmerge v8.2.0 ('World of Adventure') 64bit
Библиотека кодирования : libebml v1.3.1 + libmatroska v1.4.2

Видео
Идентификатор : 1
Формат : AVC
Формат/Информация : Advanced Video Codec
Профиль формата : [email protected]
Настройки формата : CABAC / 4 Ref Frames
Параметр CABAC формата : Да
Параметр RefFrames формата : 4 кадра
Идентификатор кодека : V_MPEG4/ISO/AVC
Продолжительность : 1 ч. 29 м.
Битрейт : 19,0 Мбит/сек
Ширина : 1920 пикселей
Высота : 1036 пикселей
Соотношение сторон : 1,85:1
Режим частоты кадров : Постоянный
Частота кадров : 23,976 (24000/1001) кадра/сек
Цветовое пространство : YUV
Субдискретизация насыщенности : 4:2:0
Битовая глубина : 8 бит
Тип развёртки : Прогрессивная
Бит/(Пиксели*Кадры) : 0.397
Размер потока : 11,8 Гбайт (98%)
Библиотека кодирования : x264 core 157 r2935 545de2f
Настройки программы : cabac=1 / ref=4 / deblock=1:-2:-2 / analyse=0x3:0x113 / me=umh / subme=11 / psy=1 / psy_rd=1.00:0.15 / mixed_ref=1 / me_range=32 / chroma_me=1 / trellis=2 / 8x8dct=1 / cqm=0 / deadzone=21,11 / fast_pskip=0 / chroma_qp_offset=-3 / threads=6 / lookahead_threads=1 / sliced_threads=0 / nr=0 / decimate=1 / interlaced=0 / bluray_compat=0 / constrained_intra=0 / bframes=13 / b_pyramid=2 / b_adapt=2 / b_bias=0 / direct=1 / weightb=1 / open_gop=0 / weightp=2 / keyint=230 / keyint_min=23 / scenecut=40 / intra_refresh=0 / rc_lookahead=40 / rc=crf / mbtree=1 / crf=20.0 / qcomp=0.60 / qpmin=0 / qpmax=69 / qpstep=4 / vbv_maxrate=50000 / vbv_bufsize=62500 / crf_max=0.0 / nal_hrd=none / filler=0 / ip_ratio=1.40 / aq=1:1.00
Язык : English
Default : Да
Forced : Нет

Аудио #1
Идентификатор : 2
Формат : AC-3
Формат/Информация : Audio Coding 3
Коммерческое название : Dolby Digital
Идентификатор кодека : A_AC3
Продолжительность : 1 ч. 29 м.
Вид битрейта : Постоянный
Битрейт : 192 Кбит/сек
Каналы : 2 канала
ChannelLayout : L R
Частота : 48,0 КГц
Частота кадров : 31,250 кадров/сек (1536 SPF)
Битовая глубина : 16 бит
Метод сжатия : С потерями
Размер потока : 122 Мбайт (1%)
Заголовок : MVO Петербург 5-й канал
Язык : Russian
ServiceKind/String : Complete Main
Default : Да
Forced : Нет

Аудио #2
Идентификатор : 3
Формат : AC-3
Формат/Информация : Audio Coding 3
Коммерческое название : Dolby Digital
Идентификатор кодека : A_AC3
Продолжительность : 1 ч. 29 м.
Вид битрейта : Постоянный
Битрейт : 192 Кбит/сек
Каналы : 1 канал
ChannelLayout : C
Частота : 48,0 КГц
Частота кадров : 31,250 кадров/сек (1536 SPF)
Битовая глубина : 16 бит
Метод сжатия : С потерями
Размер потока : 122 Мбайт (1%)
Заголовок : original
Язык : English
ServiceKind/String : Complete Main
Default : Нет
Forced : Нет

Текст
Идентификатор : 4
Формат : UTF-8
Идентификатор кодека : S_TEXT/UTF8
Идентификатор кодека/Информация : UTF-8 Plain Text
Продолжительность : 1 ч. 28 м.
Битрейт : 23 бит/сек
ElementCount : 547
Размер потока : 15,2 Кбайт (0%)
Заголовок : английские
Язык : English
Default : Нет
Forced : Нет

Меню
00:00:00.000 : :Chapter 1
00:10:03.977 : :Chapter 2
00:17:33.676 : :Chapter 3
00:27:14.924 : :Chapter 4
00:34:36.324 : :Chapter 5
00:45:25.055 : :Chapter 6
00:53:22.782 : :Chapter 7
01:03:46.614 : :Chapter 8
01:12:57.289 : :Chapter 9
01:20:58.895 : :Chapter 10
01:29:10.428 : :Chapter 11



Скачать Слепой ужас через торрент https://c.radikal.ru/c31/1908/dc/b052c0943899.jpg Скачать, смотреть онлайн Слепой ужас бесплантно в хорошем качестве Описание: Сара недавно упала с лошади и ослепла. Однажды она приезжает на ферму к своему дяде и отправляется погулять со своим другом ... 5 10 1
Торрент: Зарегистрирован [2019-08-23 06:02] · скачан: 11 раз
Статус: √ проверено
Размер: 12.05 GB
Как cкачать? Как скачать Слепой ужас через торрент | UTorrent

% Раздел Тема Автор DL S | L
Классика зарубежного кино [ 4.7 GB ] Слепой ужас / See No Evil | MVO | 720p msltel Скачать
1 | 0

28-11-2019 20:33  


Отключить вcю реклaмy на сайте, в т.ч. и в плеере онлайн просмотра!

28-08-2019 04:54 Слепой ужас Скачать торрент  

    Дорогой пользователь! Огромная просьба, поблагодарите релизера, оцените раздачу и оставьте свои комментарий, если Вы скачали Слепой ужас через торрент бесплатно!!
    Комментировать посты могут только пользователи прошедшие не сложную регистрацию
    Показать сообщения:    


    Слепой ужас через торрент
    Скачать бесплатно Слепой ужас
    Слепой ужас скачать торрент
    Слепой ужас смотреть онлайн
    Cкачать фильм Слепой ужас бесплатно
    Слепой ужас скачать торрент в хорошем качестве
    Слепой ужас смотреть онлайн бесплатно в хорошем качестве
    Вы не можете начинать темы
    Вы не можете отвечать на сообщения
    Вы не можете редактировать свои сообщения
    Вы не можете удалять свои сообщения
    Вы не можете голосовать в опросах
    Вы не можете прикреплять файлы к сообщениям
    Вы можете скачивать файлы
    Слепой ужас / See No Evil [1971, триллер, детектив, BDRip 1080p ] MVO смотреть онлайн, скачать торрент picoco.icu