Доктор Стрэндж

Лицензия

Добыча

Дубляж

Уэнсдэй

1 сезон

Тор

Дубляж

В эфире

Дубляж

Там, где раки поют

MVO

Властелин колец

1 сезон

Deluxe

pack

Рекомендуем

30

Пиратка

ВАЖНО

ВАЖНО

Ghostwire

Пиратка

jed

RePack

nioh2

RePack

RDR2

RePack

NEED FOR SPEED™ PAYBACK

RePack

скачать торрент

Кинопоиск HD

Острые козырьки 6 сезон

6 сезон

FAR CRY 6

RePack

скачать торрент

Лицензия

скачать торрент

MVO

1

1 сезон

скачать торрент

1 сезон

скачать торрент

Лицензия

  

Такая как ты есть / Cosi come sei (Альберто Латтуада) [1978, драма, мелодрама, BDRip 720p ] MVO, DVO

Такая как ты есть через торрент 5050.piratbit.fun

Размер: 4.61 GB | Добавлен: 3 года 2 мес. назад | Торрент скачан:5 раз
Смотреть онлайн | Скачать   

10-09-2019 09:07 Такая как ты есть Скачать торрент  

Название: Такая как ты есть
Оригинальное название: Cosi come sei
Год выпуска: 1978
Страна: Италия, Испания
Жанр: драма, мелодрама
Продолжительность: 01:44:38
Перевод: профессиональный многоголосый, профессиональный двухголосый

Режиссер: Альберто Латтуада
В ролях: Настасья Кински, Франсиско Рабаль, Марчелло Мастроянни, Моника Рандалл, Ания Пьерони, Барбара Де Росси, Хосе Мария Каффарель, Раймондо Пенне, Джулиана Каландра, Клаудио Алиотти, Массимо Бонетти, Марио Чекки, Адриана Фалько

Описание: Джулио Маренго сегодня не так молод и проворен, как прежде. Его любовные победы остались в прошлом, но, оказавшись в городе своей юности, он знакомится с хорошенькой студенткой Франческой. Вот только от полноценного романа его удерживает брошенная другом фраза - Франческа дочь давней подруги Джулио. А кто её отец - осталось тайной. Он долго пытается выясснить, не является ли он сам её отцом, а смущённая Франческа никак не может понять характер своих странных отношений с этим стареющим мужчиной...



Качество: BDRip 720p
Формат: MKV
Видео: MPEG-4 AVC, 5732 Kбит/с, 1276x720, 23.976 кадр/с
Аудио 1: русский, AC3, 192 kbps, 2 ch, 48 kHz [закадровый многоголосый, 5 канал]
Аудио 2: русский, AC3, 192 kbps, 2 ch, 48 kHz [закадровый двухголосый, НТВ+]
Аудио 3: итальянский, AC3, 192 kbps, 2 ch, 48 kHz [оригинал]
Субтитры: английские
Общее
Уникальный идентификатор : 188099143778129951427293560830745253856 (0x8D8293CD50558EBCA6931F0A55B617E0)
Полное имя : D:\Video\Такая как ты есть.1978.BDRip 720p by msltel.mkv
Формат : Matroska
Версия формата : Version 4
Размер файла : 4,61 Гбайт
Продолжительность : 1 ч. 44 м.
Общий поток : 6311 Кбит/сек
Название фильма : Rip by msltel
Дата кодирования : UTC 2019-09-10 08:13:41
Программа кодирования : mkvmerge v8.2.0 ('World of Adventure') 64bit
Библиотека кодирования : libebml v1.3.1 + libmatroska v1.4.2

Видео
Идентификатор : 1
Формат : AVC
Формат/Информация : Advanced Video Codec
Профиль формата : [email protected]
Настройки формата : CABAC / 9 Ref Frames
Параметр CABAC формата : Да
Параметр RefFrames формата : 9 кадров
Идентификатор кодека : V_MPEG4/ISO/AVC
Продолжительность : 1 ч. 44 м.
Битрейт : 5732 Кбит/сек
Ширина : 1276 пикселей
Высота : 720 пикселей
Соотношение сторон : 16:9
Режим частоты кадров : Постоянный
Частота кадров : 23,976 (24000/1001) кадра/сек
Цветовое пространство : YUV
Субдискретизация насыщенности : 4:2:0
Битовая глубина : 8 бит
Тип развёртки : Прогрессивная
Бит/(Пиксели*Кадры) : 0.260
Размер потока : 4,19 Гбайт (91%)
Библиотека кодирования : x264 core 157 r2935 545de2f
Настройки программы : cabac=1 / ref=9 / deblock=1:-2:-2 / analyse=0x3:0x113 / me=umh / subme=11 / psy=1 / psy_rd=1.00:0.15 / mixed_ref=1 / me_range=32 / chroma_me=1 / trellis=2 / 8x8dct=1 / cqm=0 / deadzone=21,11 / fast_pskip=0 / chroma_qp_offset=-3 / threads=6 / lookahead_threads=1 / sliced_threads=0 / nr=0 / decimate=1 / interlaced=0 / bluray_compat=0 / constrained_intra=0 / bframes=7 / b_pyramid=2 / b_adapt=2 / b_bias=0 / direct=1 / weightb=1 / open_gop=0 / weightp=2 / keyint=230 / keyint_min=23 / scenecut=40 / intra_refresh=0 / rc_lookahead=40 / rc=crf / mbtree=1 / crf=16.8 / qcomp=0.60 / qpmin=0 / qpmax=69 / qpstep=4 / vbv_maxrate=50000 / vbv_bufsize=62500 / crf_max=0.0 / nal_hrd=none / filler=0 / ip_ratio=1.40 / aq=1:1.00
Язык : Italian
Default : Да
Forced : Нет

Аудио #1
Идентификатор : 2
Формат : AC-3
Формат/Информация : Audio Coding 3
Коммерческое название : Dolby Digital
Идентификатор кодека : A_AC3
Продолжительность : 1 ч. 44 м.
Вид битрейта : Постоянный
Битрейт : 192 Кбит/сек
Каналы : 2 канала
ChannelLayout : L R
Частота : 48,0 КГц
Частота кадров : 31,250 кадров/сек (1536 SPF)
Битовая глубина : 16 бит
Метод сжатия : С потерями
Размер потока : 144 Мбайт (3%)
Заголовок : MVO 5 канал
Язык : Russian
ServiceKind/String : Complete Main
Default : Да
Forced : Нет

Аудио #2
Идентификатор : 3
Формат : AC-3
Формат/Информация : Audio Coding 3
Коммерческое название : Dolby Digital
Идентификатор кодека : A_AC3
Продолжительность : 1 ч. 44 м.
Вид битрейта : Постоянный
Битрейт : 192 Кбит/сек
Каналы : 2 канала
ChannelLayout : L R
Частота : 48,0 КГц
Частота кадров : 31,250 кадров/сек (1536 SPF)
Битовая глубина : 16 бит
Метод сжатия : С потерями
Размер потока : 144 Мбайт (3%)
Заголовок : DVO HTB+
Язык : Russian
ServiceKind/String : Complete Main
Default : Нет
Forced : Нет

Аудио #3
Идентификатор : 4
Формат : AC-3
Формат/Информация : Audio Coding 3
Коммерческое название : Dolby Digital
Идентификатор кодека : A_AC3
Продолжительность : 1 ч. 44 м.
Вид битрейта : Постоянный
Битрейт : 192 Кбит/сек
Каналы : 2 канала
ChannelLayout : L R
Частота : 48,0 КГц
Частота кадров : 31,250 кадров/сек (1536 SPF)
Битовая глубина : 16 бит
Метод сжатия : С потерями
Размер потока : 144 Мбайт (3%)
Заголовок : original
Язык : Italian
ServiceKind/String : Complete Main
Default : Нет
Forced : Нет

Текст
Идентификатор : 5
Формат : UTF-8
Идентификатор кодека : S_TEXT/UTF8
Идентификатор кодека/Информация : UTF-8 Plain Text
Продолжительность : 1 ч. 38 м.
Битрейт : 44 бит/сек
ElementCount : 911
Размер потока : 32,0 Кбайт (0%)
Заголовок : английские
Язык : English
Default : Нет
Forced : Нет



Скачать Такая как ты есть через торрент https://d.radikal.ru/d42/1909/a2/2d9440c66e74.jpg Скачать, смотреть онлайн Такая как ты есть бесплантно в хорошем качестве Описание: Джулио Маренго сегодня не так молод и проворен, как прежде. Его любовные победы остались в прошлом, но, оказавшись в городе своей ... 10 10 1
Торрент: Зарегистрирован [2019-09-10 09:07] · скачан: 5 раз
Статус: √ проверено
Размер: 4.61 GB
Как cкачать? Как скачать Такая как ты есть через торрент | UTorrent

% Раздел Тема Автор DL S | L
Классика зарубежного кино [ 9.63 GB ] Такая как ты есть / Cosi come sei | MVO | 1080p msltel Скачать
1 | 0

28-11-2019 20:33  


Отключить вcю реклaмy на сайте, в т.ч. и в плеере онлайн просмотра!

12-09-2019 07:33 Такая как ты есть Скачать торрент  

    Дорогой пользователь! Огромная просьба, поблагодарите релизера, оцените раздачу и оставьте свои комментарий, если Вы скачали Такая как ты есть через торрент бесплатно!!
    Комментировать посты могут только пользователи прошедшие не сложную регистрацию
    Показать сообщения:    


    Такая как ты есть через торрент
    Скачать бесплатно Такая как ты есть
    Такая как ты есть скачать торрент
    Такая как ты есть смотреть онлайн
    Cкачать фильм Такая как ты есть бесплатно
    Такая как ты есть скачать торрент в хорошем качестве
    Такая как ты есть смотреть онлайн бесплатно в хорошем качестве
    Вы не можете начинать темы
    Вы не можете отвечать на сообщения
    Вы не можете редактировать свои сообщения
    Вы не можете удалять свои сообщения
    Вы не можете голосовать в опросах
    Вы не можете прикреплять файлы к сообщениям
    Вы можете скачивать файлы
    Такая как ты есть / Cosi come sei [1978, драма, мелодрама, BDRip 720p ] MVO, DVO смотреть онлайн, скачать торрент picoco.icu