Доктор Стрэндж

Лицензия

Добыча

Дубляж

Уэнсдэй

1 сезон

Тор

Дубляж

В эфире

Дубляж

Там, где раки поют

MVO

Властелин колец

1 сезон

Deluxe

pack

Рекомендуем

30

Пиратка

ВАЖНО

ВАЖНО

Ghostwire

Пиратка

jed

RePack

nioh2

RePack

RDR2

RePack

NEED FOR SPEED™ PAYBACK

RePack

скачать торрент

Кинопоиск HD

Острые козырьки 6 сезон

6 сезон

FAR CRY 6

RePack

скачать торрент

Лицензия

скачать торрент

MVO

1

1 сезон

скачать торрент

1 сезон

скачать торрент

Лицензия

  

Смерть на Ниле / Роковое путешествие / Death on the Nile (Джон Гиллермин / John Guillermin) [1978, Детектив, BDRip 720p от KORSAR] 2x Дубляж + 2x MVO + 2x DVO | Ger Transfer

Смерть на Ниле через торрент 5050.piratbit.fun

Размер: 14.32 GB | Добавлен: 3 года 2 мес. назад | Торрент скачан:12 раз
Смотреть онлайн | Скачать   

15-09-2019 12:11 Смерть на Ниле Скачать торрент  

Смерть на Ниле / Death on the Nile

Страна: Великобритания
Студия: Universal
Жанр: детектив
Год выпуска: 1978
Продолжительность: 02:20:21

Перевод 1: Дублированный, советский дубляж + вставки двухголосого перевода творческой группы Союза работников дубляжа (он же ТВ-6)
Перевод 2: Дублированный, советский дубляж + вставки английского дубляжа и русскими субтитрами на места без перевода
Перевод 3: Профессиональный многоголосый, киностудия "Фильм-экспорт"
Перевод 4: Профессиональный многоголосый, Paramount Channel, Россия
Перевод 5: Профессиональный двухголосый, ТВ-6
Перевод 6: Профессиональный двухголосый, НТВ+
Оригинальная аудиодорожка: английский

Режиссер: Джон Гиллермин / John Guillermin
В ролях: Питер Устинов /Peter Ustinov/, Джейн Биркин /Jane Birkin/, Лоис Чайлз /Lois Chiles/, Бетт Дэвис /Bette Davis/, Миа Фэрроу /Mia Farrow/, Джон Финч /Jon Finch/, Оливия Хасси /Olivia Hussey/, Джордж Кеннеди /George Kennedy/, Анджела Лэнсбери /Angela Lansbury/, Саймон МакКоркиндейл /Simon MacCorkindale/

Описание: 1936 год. Богатая наследница мисс Линнет Риджуэй (Л. Чайлз) уводит у лучшей подруги Джекки (М. Фэрроу) жениха и отправляется с ним в свадебное путешествие по Нилу. Снедаемая ненавистью, Джекки следует за ними. На борту парохода "Карнак" также находится еще десяток пассажиров, которых стерва Линнет быстро превращает в своих смертных врагов. Убийства не миновать. Когда оно случится, в дело вступит бельгийский сыщик Эркюль Пуаро (П. Устинов), путешествующий тем же рейсом — совершенно случайно.

Релиз от:

Качество: BDRip 720p
Формат: MKV

Видео: MPEG-4 AVC, 1278х676, 24 fps, 12,8 Мбит/сек
Аудио 1: Russian / Dolby Digital Audio / 2.0 / 48 kHz / 192 kbps - Дубляж + DVO (ТВ-6)
Аудио 2: Russian / Dolby Digital Audio / 2.0 / 48 kHz / 192 kbps - Дубляж + SUB
Аудио 3: Russian / Dolby Digital Audio / 2.0 / 48 kHz / 192 kbps - MVO, "Фильм-экспорт"
Аудио 4: Russian / Dolby Digital Audio / 2.0 / 48 kHz / 192 kbps - MVO, Paramount Channel
Аудио 5: Russian / Dolby Digital Audio / 2.0 / 48 kHz / 192 kbps - DVO, ТВ-6
Аудио 6: Russian / Dolby Digital Audio / 2.0 / 48 kHz / 192 kbps - DVO, НТВ+
Аудио 7: English / Dolby Digital Audio / 2.0 / 48 kHz / 384 kbps - Original
Субтитры: Русские, английские
Навигация по главам: Есть

  • x264 [info]: frame I:1235 Avg QP:18.06 size:185972
  • x264 [info]: frame P:34343 Avg QP:19.37 size:106246
  • x264 [info]: frame B:166532 Avg QP:21.65 size: 59281
  • x264 [info]: consecutive B-frames: 0.8% 0.8% 2.5% 11.5% 18.9% 20.4% 14.5% 11.1% 13.5% 4.6% 0.4%
Общее
Уникальный идентификатор : 234502648374740869859624316868504370517 (0xB06B913793F5699691EFCD700C28BD55)
Полное имя : D:\Смерть на Ниле_1978-BDRip 720p_KORSAR.mkv
Формат : Matroska
Версия формата : Version 2
Размер файла : 14,3 Гбайт
Продолжительность : 2 ч. 20 м.
Общий поток : 14,6 Мбит/сек
Название фильма : Смерть на Ниле_1978-BDRip 720p_KORSAR
Дата кодирования : UTC 2019-02-26 15:06:44
Программа кодирования : mkvmerge v5.8.0 ('No Sleep / Pillow') built on Sep 2 2012 15:37:04
Библиотека кодирования : libebml v1.2.3 + libmatroska v1.3.0

Видео
Идентификатор : 1
Формат : AVC
Формат/Информация : Advanced Video Codec
Профиль формата : [email protected]
Параметр CABAC формата : Да
Параметр ReFrames формата : 9 кадров
Идентификатор кодека : V_MPEG4/ISO/AVC
Продолжительность : 2 ч. 20 м.
Битрейт : 12,8 Мбит/сек
Ширина : 1278 пикселей
Высота : 676 пикселей
Соотношение сторон : 1,891
Режим частоты кадров : Постоянный
Частота кадров : 24,000 кадра/сек
Цветовое пространство : YUV
Субдискретизация насыщенности : 4:2:0
Битовая глубина : 8 бит
Тип развёртки : Прогрессивная
Бит/(Пиксели*Кадры) : 0.616
Размер потока : 12,5 Гбайт (87%)
Библиотека кодирования : x264 core 152 r2851kMod ba24899
Настройки программы : cabac=1 / ref=9 / deblock=1:-3:-2 / analyse=0x3:0x113 / me=umh / subme=10 / psy=1 / fade_compensate=0.00 / psy_rd=1.05:0.10 / mixed_ref=1 / me_range=48 / chroma_me=1 / trellis=2 / 8x8dct=1 / cqm=0 / deadzone=21,11 / fast_pskip=1 / chroma_qp_offset=-3 / threads=12 / lookahead_threads=3 / sliced_threads=0 / nr=0 / decimate=1 / interlaced=0 / bluray_compat=0 / constrained_intra=0 / bframes=10 / b_pyramid=2 / b_adapt=2 / b_bias=0 / direct=1 / weightb=1 / open_gop=0 / weightp=2 / keyint=240 / keyint_min=24 / scenecut=40 / intra_refresh=0 / rc=crf / mbtree=0 / crf=17.6000 / qcomp=0.63 / qpmin=0 / qpmax=39 / qpstep=4 / ip_ratio=1.40 / pb_ratio=1.30 / aq=2:0.80
Язык : English
Default : Да
Forced : Нет
Основные цвета : BT.709
Характеристики трансфера : BT.709
Коэффициенты матрицы : BT.709

Аудио #1
Идентификатор : 2
Формат : AC-3
Формат/Информация : Audio Coding 3
Расширение режима : CM (complete main)
Параметр Endianness формата : Big
Идентификатор кодека : A_AC3
Продолжительность : 2 ч. 20 м.
Вид битрейта : Постоянный
Битрейт : 192 Кбит/сек
Каналы : 2 канала
Расположение каналов : Front: L R
Частота : 48,0 КГц
Битовая глубина : 16 бит
Метод сжатия : С потерями
Размер потока : 193 Мбайт (1%)
Заголовок : Дубляж + DVO
Язык : Russian
Default : Да
Forced : Нет

Аудио #2
Идентификатор : 3
Формат : AC-3
Формат/Информация : Audio Coding 3
Расширение режима : CM (complete main)
Параметр Endianness формата : Big
Идентификатор кодека : A_AC3
Продолжительность : 2 ч. 20 м.
Вид битрейта : Постоянный
Битрейт : 192 Кбит/сек
Каналы : 2 канала
Расположение каналов : Front: L R
Частота : 48,0 КГц
Битовая глубина : 16 бит
Метод сжатия : С потерями
Размер потока : 193 Мбайт (1%)
Заголовок : Дубляж
Язык : Russian
Default : Нет
Forced : Нет

Аудио #3
Идентификатор : 4
Формат : AC-3
Формат/Информация : Audio Coding 3
Расширение режима : CM (complete main)
Параметр Endianness формата : Big
Идентификатор кодека : A_AC3
Продолжительность : 2 ч. 20 м.
Вид битрейта : Постоянный
Битрейт : 192 Кбит/сек
Каналы : 2 канала
Расположение каналов : Front: L R
Частота : 48,0 КГц
Битовая глубина : 16 бит
Метод сжатия : С потерями
Размер потока : 193 Мбайт (1%)
Заголовок : MVO-Фильм-экспорт
Язык : Russian
Default : Нет
Forced : Нет

Аудио #4
Идентификатор : 5
Формат : AC-3
Формат/Информация : Audio Coding 3
Расширение режима : CM (complete main)
Параметр Endianness формата : Big
Идентификатор кодека : A_AC3
Продолжительность : 2 ч. 20 м.
Вид битрейта : Постоянный
Битрейт : 192 Кбит/сек
Каналы : 2 канала
Расположение каналов : Front: L R
Частота : 48,0 КГц
Битовая глубина : 16 бит
Метод сжатия : С потерями
Размер потока : 193 Мбайт (1%)
Заголовок : MVO-Paramount Channel
Язык : Russian
Default : Нет
Forced : Нет

Аудио #5
Идентификатор : 6
Формат : AC-3
Формат/Информация : Audio Coding 3
Расширение режима : CM (complete main)
Параметр Endianness формата : Big
Идентификатор кодека : A_AC3
Продолжительность : 2 ч. 20 м.
Вид битрейта : Постоянный
Битрейт : 192 Кбит/сек
Каналы : 2 канала
Расположение каналов : Front: L R
Частота : 48,0 КГц
Битовая глубина : 16 бит
Метод сжатия : С потерями
Размер потока : 193 Мбайт (1%)
Заголовок : DVO-ТВ-6
Язык : Russian
Default : Нет
Forced : Нет

Аудио #6
Идентификатор : 7
Формат : AC-3
Формат/Информация : Audio Coding 3
Расширение режима : CM (complete main)
Параметр Endianness формата : Big
Идентификатор кодека : A_AC3
Продолжительность : 2 ч. 20 м.
Вид битрейта : Постоянный
Битрейт : 192 Кбит/сек
Каналы : 2 канала
Расположение каналов : Front: L R
Частота : 48,0 КГц
Битовая глубина : 16 бит
Метод сжатия : С потерями
Размер потока : 193 Мбайт (1%)
Заголовок : DVO-НТВ+
Язык : Russian
Default : Нет
Forced : Нет

Аудио #7
Идентификатор : 8
Формат : AC-3
Формат/Информация : Audio Coding 3
Расширение режима : CM (complete main)
Параметр Endianness формата : Big
Идентификатор кодека : A_AC3
Продолжительность : 2 ч. 20 м.
Вид битрейта : Постоянный
Битрейт : 384 Кбит/сек
Каналы : 2 канала
Расположение каналов : Front: L R
Частота : 48,0 КГц
Битовая глубина : 16 бит
Метод сжатия : С потерями
Размер потока : 385 Мбайт (3%)
Язык : English
Default : Нет
Forced : Нет

Текст #1
Идентификатор : 9
Формат : UTF-8
Идентификатор кодека : S_TEXT/UTF8
Идентификатор кодека/Информация : UTF-8 Plain Text
Язык : Russian
Default : Нет
Forced : Нет

Текст #2
Идентификатор : 10
Формат : UTF-8
Идентификатор кодека : S_TEXT/UTF8
Идентификатор кодека/Информация : UTF-8 Plain Text
Язык : English
Default : Нет
Forced : Нет

Меню
00:00:00.000 : en:
00:12:01.500 : en:
00:22:59.166 : en:
00:34:36.916 : en:
00:46:18.750 : en:
00:57:40.833 : en:
01:09:19.625 : en:
01:19:45.625 : en:
01:33:11.458 : en:
01:44:28.916 : en:
01:52:23.666 : en:
02:07:14.875 : en:



Скачать Смерть на Ниле через торрент https://d.radikal.ru/d10/1909/f7/aa4f66daff36.jpg Скачать, смотреть онлайн Смерть на Ниле бесплантно в хорошем качестве Описание: 1936 год. Богатая наследница мисс Линнет Риджуэй (Л. Чайлз) уводит у лучшей подруги Джекки (М. Фэрроу) жениха и отправляется с ... 10 10 3
Info! Золотая раздача, скачанное не засчитывается.
Торрент: Зарегистрирован [2019-09-15 12:11] · скачан: 12 раз
Статус: √ проверено
Размер: 14.32 GB
Как cкачать? Как скачать Смерть на Ниле через торрент | UTorrent

28-11-2019 20:33  


Отключить вcю реклaмy на сайте, в т.ч. и в плеере онлайн просмотра!

    Дорогой пользователь! Огромная просьба, поблагодарите релизера, оцените раздачу и оставьте свои комментарий, если Вы скачали Смерть на Ниле через торрент бесплатно!!
    Комментировать посты могут только пользователи прошедшие не сложную регистрацию
    Показать сообщения:    


    Смерть на Ниле через торрент
    Скачать бесплатно Смерть на Ниле
    Смерть на Ниле скачать торрент
    Смерть на Ниле смотреть онлайн
    Cкачать фильм Смерть на Ниле бесплатно
    Смерть на Ниле скачать торрент в хорошем качестве
    Смерть на Ниле смотреть онлайн бесплатно в хорошем качестве
    Вы не можете начинать темы
    Вы не можете отвечать на сообщения
    Вы не можете редактировать свои сообщения
    Вы не можете удалять свои сообщения
    Вы не можете голосовать в опросах
    Вы не можете прикреплять файлы к сообщениям
    Вы можете скачивать файлы
    Смерть на Ниле / Роковое путешествие / Death on the Nile [1978, Детектив, BDRip 720p от KORSAR] 2x Дубляж + 2x MVO + 2x DVO | Ger Transfer смотреть онлайн, скачать торрент picoco.icu