Доктор Стрэндж

Лицензия

Добыча

Дубляж

Дом дракона

1 сезон

Тор

Дубляж

В эфире

Дубляж

Там, где раки поют

MVO

Властелин колец

1 сезон

Ultimate

pack

Рекомендуем

30

Пиратка

ВАЖНО

ВАЖНО

Ghostwire

Пиратка

jed

RePack

nioh2

RePack

RDR2

RePack

NEED FOR SPEED™ PAYBACK

RePack

скачать торрент

Кинопоиск HD

Острые козырьки 6 сезон

6 сезон

FAR CRY 6

RePack

скачать торрент

Лицензия

скачать торрент

MVO

1

1 сезон

скачать торрент

1 сезон

скачать торрент

Лицензия

  

Паскуалино "Семь красоток" / Pasqualino Settebellezze (Лина Вертмюллер) [1975, драма, комедия, военный, BDRip 720p ] DVO

Паскуалино "Семь красоток" через торрент 5050.piratbit.fun

Размер: 5.31 GB | Добавлен: 3 года 1 мес. назад | Торрент скачан:2 раза
Смотреть онлайн | Скачать   

03-10-2019 07:04 Паскуалино "Семь красоток" Скачать торрент  

Название: Паскуалино "Семь красоток"
Оригинальное название: Pasqualino Settebellezze
Год выпуска: 1975
Страна: Италия
Жанр: драма, комедия, военный
Продолжительность: 01:56:30
Перевод: закадровый двухголосый

Режиссер: Лина Вертмюллер
В ролях: Джанкарло Джаннини, Фернандо Рей, Шерли Столер, Элена Фиоре, Пьеро Ди Йорио, Роберто Херлицка, Энцо Витале, Лучо Амелио, Эрмелинда Де Феличе, Франческа Марсиани, Бьянка Д'Ориглиа, Марио Конти

Описание: Фильм повествует об итальянском обывателе Паскуалино, который дезертирует из армии во время Второй мировой войны и за это попадает в концлагерь, где он делает всё, чтобы выжить - оказывает сексуальные услуги женщине-коменданту, по её распоряжению выбирает шесть человек (в том числе своего товарища), которые будут убиты)... Через воспоминания главного героя мы узнаём о его семье и о семи непривлекательных сестрах, из-за которых он получил прозвище «Семь красоток». Чтобы сохранить честь семьи, Паскуалино убивает сутенёра, который сделал одну из его сестёр проституткой. Пойманный полицией, он был осуждён и отправлен в тюрьму. Паскуалино удаётся перевести себя в психиатрическую больницу, откуда, отчаянно пытаясь выбраться, он добровольно отправляется в итальянскую армию, которая является союзником германской. Вместе с итальянским товарищем он, в конце концов, покидает армию. Но их ловят и отправляют в немецкий концлагерь. В конце войны, по возвращении в Неаполь, Паскуалино обнаруживает, что все его сестры, его невеста и даже его мать выжили, став проститутками... (Википедия)



Качество: BDRip 720p
Формат: MKV
Видео: MPEG-4 AVC, 6134 Кбит/с, 1280x694, 23.976 кадр/с
Аудио 1: русский, AC3, 192 kbps, 2 ch, 48 kHz [закадровый двухголосый]
Аудио 2: итальянский, AC3, 192 kbps, 2 ch, 48 kHz [оригинал]
Субтитры: английские
Главы/чаптеры
Общее
Уникальный идентификатор : 172805849320055262615179554343103954852 (0x8201322B8DBD8357BC6628121692FFA4)
Полное имя : D:\Video\Паскуалино.1975.BDRip 720p by msltel.mkv
Формат : Matroska
Версия формата : Version 4
Размер файла : 5,31 Гбайт
Продолжительность : 1 ч. 56 м.
Общий поток : 6520 Кбит/сек
Название фильма : Rip by msltel
Дата кодирования : UTC 2019-10-03 01:10:40
Программа кодирования : mkvmerge v8.2.0 ('World of Adventure') 64bit
Библиотека кодирования : libebml v1.3.1 + libmatroska v1.4.2

Видео
Идентификатор : 1
Формат : AVC
Формат/Информация : Advanced Video Codec
Профиль формата : [email protected]
Настройки формата : CABAC / 9 Ref Frames
Параметр CABAC формата : Да
Параметр RefFrames формата : 9 кадров
Идентификатор кодека : V_MPEG4/ISO/AVC
Продолжительность : 1 ч. 56 м.
Битрейт : 6134 Кбит/сек
Ширина : 1280 пикселей
Высота : 694 пикселя
Соотношение сторон : 1,85:1
Режим частоты кадров : Постоянный
Частота кадров : 23,976 (24000/1001) кадра/сек
Цветовое пространство : YUV
Субдискретизация насыщенности : 4:2:0
Битовая глубина : 8 бит
Тип развёртки : Прогрессивная
Бит/(Пиксели*Кадры) : 0.288
Размер потока : 4,99 Гбайт (94%)
Библиотека кодирования : x264 core 157 r2935 545de2f
Настройки программы : cabac=1 / ref=9 / deblock=1:-2:-2 / analyse=0x3:0x113 / me=umh / subme=11 / psy=1 / psy_rd=1.00:0.15 / mixed_ref=1 / me_range=32 / chroma_me=1 / trellis=2 / 8x8dct=1 / cqm=0 / deadzone=21,11 / fast_pskip=0 / chroma_qp_offset=-3 / threads=6 / lookahead_threads=1 / sliced_threads=0 / nr=0 / decimate=1 / interlaced=0 / bluray_compat=0 / constrained_intra=0 / bframes=11 / b_pyramid=2 / b_adapt=2 / b_bias=0 / direct=1 / weightb=1 / open_gop=0 / weightp=2 / keyint=230 / keyint_min=23 / scenecut=40 / intra_refresh=0 / rc_lookahead=40 / rc=crf / mbtree=1 / crf=18.2 / qcomp=0.60 / qpmin=0 / qpmax=69 / qpstep=4 / vbv_maxrate=50000 / vbv_bufsize=62500 / crf_max=0.0 / nal_hrd=none / filler=0 / ip_ratio=1.40 / aq=1:1.00
Язык : Italian
Default : Да
Forced : Нет

Аудио #1
Идентификатор : 2
Формат : AC-3
Формат/Информация : Audio Coding 3
Коммерческое название : Dolby Digital
Идентификатор кодека : A_AC3
Продолжительность : 1 ч. 56 м.
Вид битрейта : Постоянный
Битрейт : 192 Кбит/сек
Каналы : 2 канала
ChannelLayout : L R
Частота : 48,0 КГц
Частота кадров : 31,250 кадров/сек (1536 SPF)
Метод сжатия : С потерями
Размер потока : 160 Мбайт (3%)
Заголовок : DVO
Язык : Russian
ServiceKind/String : Complete Main
Default : Да
Forced : Нет

Аудио #2
Идентификатор : 3
Формат : AC-3
Формат/Информация : Audio Coding 3
Коммерческое название : Dolby Digital
Идентификатор кодека : A_AC3
Продолжительность : 1 ч. 56 м.
Вид битрейта : Постоянный
Битрейт : 192 Кбит/сек
Каналы : 2 канала
ChannelLayout : L R
Частота : 48,0 КГц
Частота кадров : 31,250 кадров/сек (1536 SPF)
Метод сжатия : С потерями
Размер потока : 160 Мбайт (3%)
Заголовок : original
Язык : Italian
ServiceKind/String : Complete Main
Default : Нет
Forced : Нет

Текст
Идентификатор : 4
Формат : UTF-8
Идентификатор кодека : S_TEXT/UTF8
Идентификатор кодека/Информация : UTF-8 Plain Text
Продолжительность : 1 ч. 54 м.
Битрейт : 38 бит/сек
ElementCount : 1059
Размер потока : 32,7 Кбайт (0%)
Заголовок : английские
Язык : English
Default : Нет
Forced : Нет

Меню
00:00:00.000 : :Глава 01
00:09:51.674 : :Глава 02
00:18:27.189 : :Глава 03
00:27:53.755 : :Глава 04
00:39:20.941 : :Глава 05
00:48:29.406 : :Глава 06
00:59:30.024 : :Глава 07
01:12:10.159 : :Глава 08
01:24:04.581 : :Глава 09
01:41:26.413 : :Глава 10



Скачать Паскуалино "Семь красоток" через торрент https://c.radikal.ru/c38/1910/7c/8e7c0c98f6f1.jpg Скачать, смотреть онлайн Паскуалино "Семь красоток" бесплантно в хорошем качестве Описание: Фильм повествует об итальянском обывателе Паскуалино, который дезертирует из армии во время Второй мировой войны и за это ... 5 10 1
Торрент: Зарегистрирован [2019-10-03 07:04] · скачан: 2 раз
Статус: √ проверено
Размер: 5.31 GB
Как cкачать? Как скачать Паскуалино "Семь красоток" через торрент | UTorrent

28-11-2019 20:33  


Отключить вcю реклaмy на сайте, в т.ч. и в плеере онлайн просмотра!

    Дорогой пользователь! Огромная просьба, поблагодарите релизера, оцените раздачу и оставьте свои комментарий, если Вы скачали Паскуалино "Семь красоток" через торрент бесплатно!!
    Комментировать посты могут только пользователи прошедшие не сложную регистрацию
    Показать сообщения:    


    Паскуалино "Семь красоток" через торрент
    Скачать бесплатно Паскуалино "Семь красоток"
    Паскуалино "Семь красоток" скачать торрент
    Паскуалино "Семь красоток" смотреть онлайн
    Cкачать фильм Паскуалино "Семь красоток" бесплатно
    Паскуалино "Семь красоток" скачать торрент в хорошем качестве
    Паскуалино "Семь красоток" смотреть онлайн бесплатно в хорошем качестве
    Вы не можете начинать темы
    Вы не можете отвечать на сообщения
    Вы не можете редактировать свои сообщения
    Вы не можете удалять свои сообщения
    Вы не можете голосовать в опросах
    Вы не можете прикреплять файлы к сообщениям
    Вы можете скачивать файлы
    Паскуалино "Семь красоток" / Pasqualino Settebellezze [1975, драма, комедия, военный, BDRip 720p ] DVO смотреть онлайн, скачать торрент picoco.icu