Доктор Стрэндж

Лицензия

Добыча

Дубляж

Дом дракона

1 сезон

Тор

Дубляж

В эфире

Дубляж

Там, где раки поют

MVO

Властелин колец

1 сезон

Ultimate

pack

Рекомендуем

30

Пиратка

ВАЖНО

ВАЖНО

Ghostwire

Пиратка

jed

RePack

nioh2

RePack

RDR2

RePack

NEED FOR SPEED™ PAYBACK

RePack

скачать торрент

Кинопоиск HD

Острые козырьки 6 сезон

6 сезон

FAR CRY 6

RePack

скачать торрент

Лицензия

скачать торрент

MVO

1

1 сезон

скачать торрент

1 сезон

скачать торрент

Лицензия

  

Несколько слишком спокойных господ / Quelques Messieurs Trop Tranquilles (Жорж Лотнер) [1973, комедия, криминал, детектив, BDRip 720p ] MVO

Несколько слишком спокойных господ через торрент 5050.piratbit.fun

Размер: 4.32 GB | Добавлен: 3 года 1 мес. назад | Торрент скачан:1 раз
Смотреть онлайн | Скачать   

07-10-2019 07:57 Несколько слишком спокойных господ Скачать торрент  

Название: Несколько слишком спокойных господ
Оригинальное название: Quelques Messieurs Trop Tranquilles
Год выпуска: 1973
Страна: Франция
Жанр: комедия, криминал, детектив
Продолжительность: 01:36:15
Перевод: закадровый многоголосый

Режиссер: Жорж Лотнер
В ролях: Дани, Мишель Галабрю, Анри Гибе, Жан Лефевр, Андре Пусс, Бруно Прадаль, Поль Пребуа, Рене Сен-Сир, Чарльз Саутвуд, Миу-Миу

Описание: Чтобы спасти свою деревню от окончательного запустения, местные жители из кожи вон лезут, стараясь заманить туристов. Но, на их беду, к ним в гости едут только бесшабашные хиппари, которые, в конце концов, надоедают горожанам своими выходками. Спокойные провинциалы, которых достала разгульная молодежь, выгоняют постояльцев из города. Но вскоре жителям деревни приходится объединиться с хиппи в поисках таинственных преступников...



Качество: BDRip 720p
Формат: MKV
Видео: MPEG-4 AVC, 6037 Кбит/с, 1204x720
Аудио 1: русский, AC3, 192 kbps, 2 ch, 48 kHz [закадровый многоголосый, т/к Россия]
Аудио 2: французский, AC3, 192 kbps, 2 ch, 48 kHz [оригинал]
Субтитры 1: русские (Антон Каптелов)
Субтитры 2: английские
Главы/чаптеры
Общее
Уникальный идентификатор : 221034648400273470312383993458617526811 (0xA649B98D27ED4ECCB6B975E80D98AA1B)
Полное имя : D:\Video\Несколько слишком спокойных господ.1973.BDRip 720p by msltel.mkv
Формат : Matroska
Версия формата : Version 4
Размер файла : 4,32 Гбайт
Продолжительность : 1 ч. 36 м.
Общий поток : 6423 Кбит/сек
Дата кодирования : UTC 2019-10-07 06:15:16
Программа кодирования : mkvmerge v8.2.0 ('World of Adventure') 64bit
Библиотека кодирования : libebml v1.3.1 + libmatroska v1.4.2

Видео
Идентификатор : 1
Формат : AVC
Формат/Информация : Advanced Video Codec
Профиль формата : [email protected]
Настройки формата : CABAC / 9 Ref Frames
Параметр CABAC формата : Да
Параметр RefFrames формата : 9 кадров
Идентификатор кодека : V_MPEG4/ISO/AVC
Продолжительность : 1 ч. 36 м.
Битрейт : 6037 Кбит/сек
Ширина : 1204 пикселя
Высота : 720 пикселей
Соотношение сторон : 5:3
Режим частоты кадров : Постоянный
Частота кадров : 24,000 кадра/сек
Цветовое пространство : YUV
Субдискретизация насыщенности : 4:2:0
Битовая глубина : 8 бит
Тип развёртки : Прогрессивная
Бит/(Пиксели*Кадры) : 0.290
Размер потока : 4,06 Гбайт (94%)
Библиотека кодирования : x264 core 157 r2935 545de2f
Настройки программы : cabac=1 / ref=9 / deblock=1:-2:-2 / analyse=0x3:0x113 / me=umh / subme=11 / psy=1 / psy_rd=1.00:0.15 / mixed_ref=1 / me_range=32 / chroma_me=1 / trellis=2 / 8x8dct=1 / cqm=0 / deadzone=21,11 / fast_pskip=0 / chroma_qp_offset=-3 / threads=6 / lookahead_threads=1 / sliced_threads=0 / nr=0 / decimate=1 / interlaced=0 / bluray_compat=0 / constrained_intra=0 / bframes=8 / b_pyramid=2 / b_adapt=2 / b_bias=0 / direct=1 / weightb=1 / open_gop=0 / weightp=2 / keyint=230 / keyint_min=23 / scenecut=40 / intra_refresh=0 / rc_lookahead=40 / rc=crf / mbtree=1 / crf=20.0 / qcomp=0.60 / qpmin=0 / qpmax=69 / qpstep=4 / vbv_maxrate=50000 / vbv_bufsize=62500 / crf_max=0.0 / nal_hrd=none / filler=0 / ip_ratio=1.40 / aq=1:1.00
Язык : French
Default : Да
Forced : Нет

Аудио #1
Идентификатор : 2
Формат : AC-3
Формат/Информация : Audio Coding 3
Коммерческое название : Dolby Digital
Идентификатор кодека : A_AC3
Продолжительность : 1 ч. 36 м.
Вид битрейта : Постоянный
Битрейт : 192 Кбит/сек
Каналы : 2 канала
ChannelLayout : L R
Частота : 48,0 КГц
Частота кадров : 31,250 кадров/сек (1536 SPF)
Метод сжатия : С потерями
Размер потока : 132 Мбайт (3%)
Заголовок : MVO т/к Россия
Язык : Russian
ServiceKind/String : Complete Main
Default : Да
Forced : Нет

Аудио #2
Идентификатор : 3
Формат : AC-3
Формат/Информация : Audio Coding 3
Коммерческое название : Dolby Digital
Идентификатор кодека : A_AC3
Продолжительность : 1 ч. 36 м.
Вид битрейта : Постоянный
Битрейт : 192 Кбит/сек
Каналы : 2 канала
ChannelLayout : L R
Частота : 48,0 КГц
Частота кадров : 31,250 кадров/сек (1536 SPF)
Метод сжатия : С потерями
Размер потока : 132 Мбайт (3%)
Заголовок : original
Язык : French
ServiceKind/String : Complete Main
Default : Нет
Forced : Нет

Текст #1
Идентификатор : 4
Формат : UTF-8
Идентификатор кодека : S_TEXT/UTF8
Идентификатор кодека/Информация : UTF-8 Plain Text
Продолжительность : 1 ч. 34 м.
Битрейт : 91 бит/сек
ElementCount : 1211
Размер потока : 63,4 Кбайт (0%)
Заголовок : русские
Язык : Russian
Default : Нет
Forced : Нет

Текст #2
Идентификатор : 5
Формат : UTF-8
Идентификатор кодека : S_TEXT/UTF8
Идентификатор кодека/Информация : UTF-8 Plain Text
Продолжительность : 1 ч. 34 м.
Битрейт : 48 бит/сек
ElementCount : 1199
Размер потока : 33,9 Кбайт (0%)
Заголовок : внглийские
Язык : English
Default : Нет
Forced : Нет

Меню
00:00:00.000 : :Chapter 1
00:08:17.750 : :Chapter 2
00:16:03.082 : :Chapter 3
00:24:19.000 : :Chapter 4
00:31:57.000 : :Chapter 5
00:42:14.916 : :Chapter 6
00:51:09.375 : :Chapter 7
00:57:43.750 : :Chapter 8
01:06:19.375 : :Chapter 9
01:11:29.500 : :Chapter 10
01:19:49.707 : :Chapter 11
01:27:19.541 : :Chapter 12
01:36:14.750 : :Chapter 13



Скачать Несколько слишком спокойных господ через торрент https://c.radikal.ru/c15/1910/b5/5e1951f12cea.jpg Скачать, смотреть онлайн Несколько слишком спокойных господ бесплантно в хорошем качестве Описание: Чтобы спасти свою деревню от окончательного запустения, местные жители из кожи вон лезут, стараясь заманить туристов. Но, на их ... 5 10 1
Торрент: Зарегистрирован [2019-10-07 07:57] · скачан: 1 раз
Статус: √ проверено
Размер: 4.32 GB
Как cкачать? Как скачать Несколько слишком спокойных господ через торрент | UTorrent

% Раздел Тема Автор DL S | L
Классика зарубежного кино [ 13.22 GB ] Несколько слишком спокойных господ / Quelques Messieurs Trop Tranquilles | MVO | 1080p msltel Скачать
1 | 0
Классика зарубежного кино [ 2.25 GB ] Несколько слишком спокойных господ / Quelques Messieurs Trop Tranquilles | MVO | BDRip (AVC msltel Скачать
1 | 0

28-11-2019 20:33  


Отключить вcю реклaмy на сайте, в т.ч. и в плеере онлайн просмотра!

    Дорогой пользователь! Огромная просьба, поблагодарите релизера, оцените раздачу и оставьте свои комментарий, если Вы скачали Несколько слишком спокойных господ через торрент бесплатно!!
    Комментировать посты могут только пользователи прошедшие не сложную регистрацию
    Показать сообщения:    


    Несколько слишком спокойных господ через торрент
    Скачать бесплатно Несколько слишком спокойных господ
    Несколько слишком спокойных господ скачать торрент
    Несколько слишком спокойных господ смотреть онлайн
    Cкачать фильм Несколько слишком спокойных господ бесплатно
    Несколько слишком спокойных господ скачать торрент в хорошем качестве
    Несколько слишком спокойных господ смотреть онлайн бесплатно в хорошем качестве
    Вы не можете начинать темы
    Вы не можете отвечать на сообщения
    Вы не можете редактировать свои сообщения
    Вы не можете удалять свои сообщения
    Вы не можете голосовать в опросах
    Вы не можете прикреплять файлы к сообщениям
    Вы можете скачивать файлы
    Несколько слишком спокойных господ / Quelques Messieurs Trop Tranquilles [1973, комедия, криминал, детектив, BDRip 720p ] MVO смотреть онлайн, скачать торрент picoco.icu