Доктор Стрэндж

Лицензия

Добыча

Дубляж

Уэнсдэй

1 сезон

Тор

Дубляж

В эфире

Дубляж

Там, где раки поют

MVO

Властелин колец

1 сезон

Deluxe

pack

Рекомендуем

30

Пиратка

ВАЖНО

ВАЖНО

Ghostwire

Пиратка

jed

RePack

nioh2

RePack

RDR2

RePack

NEED FOR SPEED™ PAYBACK

RePack

скачать торрент

Кинопоиск HD

Острые козырьки 6 сезон

6 сезон

FAR CRY 6

RePack

скачать торрент

Лицензия

скачать торрент

MVO

1

1 сезон

скачать торрент

1 сезон

скачать торрент

Лицензия

  

Негодяи / The Spoilers (Рэй Энрайт) [1942, вестерн, драма, BDRip 1080p ] 2 x DVO

Негодяи через торрент 5050.piratbit.fun

Размер: 8.04 GB | Добавлен: 3 года 1 мес. назад | Торрент скачан:1 раз
Смотреть онлайн | Скачать   

16-10-2019 05:31 Негодяи Скачать торрент  

Название: Негодяи
Оригинальное название: The Spoilers
Год выпуска: 1942
Страна: США
Жанр: вестерн, драма
Продолжительность: 01:27:15
Перевод: закадровый двухголосый

Режиссер: Рэй Энрайт
В ролях: Марлен Дитрих, Рэндольф Скотт, Джон Уэйн, Маргарет Линдси, Гарри Кэри ст., Ричард Бартелмесс, Джордж Кливлэнд, Сэмьюэл С. Хайндс, Расселл Симпсон, Уильям Фарнум, Мариэтта Кэнти, Джек Нортон, Рэй Беннетт, Форрест Тейлор

Описание: Конец девятнадцатого века, эпоха «золотой лихорадки», охватившей Аляску. На Клондайке правят лихие людишки: ловкие мошенники, алчные дельцы и сорвиголовы всех мастей, а дела, чаще всего, решаются с помощью кулаков и безотказного шестизарядного помощника по имени "кольт". У честного бизнесмена капитана Роя Гленнистера силой пытаются отсудить прииск. За вероломной аферой стоит коррумпированный чиновник Александр Макнамара, сговорившийся с местным судьей. Вместе со своей любовницей, очаровательной певицей Черри Малотт, Рой изо всех сил пытается противостоять козням негодяя законным путём. Однако восстановить справедливость можно лишь взяв в руки оружие...



Качество: BDRip 1080p
Формат: MKV
Видео: MPEG-4 AVC, 11.3 Mбит/с, 1454x1080
Аудио 1: русский, AC3, 192 kbps, 2 ch, 48 kHz [закадровый двухголосый, ГТРК Культура]
Аудио 2: русский, AC3, 192 kbps, 2 ch, 48 kHz [закадровый двухголосый, Film Prestige]
Аудио 3: английский, DTS, 1509 kbps, 2 ch, 48 kHz [оригинал]
Субтитры 1: русские
Субтитры 2: английские
Главы/чаптеры
Общее
Уникальный идентификатор : 251969247123006253282903379825671304825 (0xBD8F8305F91584CC8841F700ACAC7679)
Полное имя : D:\Video\Негодяи.1942.BDRip 1080p by msltel.mkv
Формат : Matroska
Версия формата : Version 4
Размер файла : 8,04 Гбайт
Продолжительность : 1 ч. 27 м.
Общий поток : 13,2 Мбит/сек
Название фильма : Rip by msltel
Дата кодирования : UTC 2019-10-15 10:56:00
Программа кодирования : mkvmerge v8.2.0 ('World of Adventure') 64bit
Библиотека кодирования : libebml v1.3.1 + libmatroska v1.4.2

Видео
Идентификатор : 1
Формат : AVC
Формат/Информация : Advanced Video Codec
Профиль формата : [email protected]
Настройки формата : CABAC / 4 Ref Frames
Параметр CABAC формата : Да
Параметр RefFrames формата : 4 кадра
Идентификатор кодека : V_MPEG4/ISO/AVC
Продолжительность : 1 ч. 27 м.
Битрейт : 11,3 Мбит/сек
Ширина : 1454 пикселя
Высота : 1080 пикселей
Соотношение сторон : 4:3
Режим частоты кадров : Постоянный
Частота кадров : 23,976 (24000/1001) кадра/сек
Цветовое пространство : YUV
Субдискретизация насыщенности : 4:2:0
Битовая глубина : 8 бит
Тип развёртки : Прогрессивная
Бит/(Пиксели*Кадры) : 0.300
Размер потока : 6,89 Гбайт (86%)
Библиотека кодирования : x264 core 157 r2935 545de2f
Настройки программы : cabac=1 / ref=4 / deblock=1:-2:-2 / analyse=0x3:0x113 / me=umh / subme=11 / psy=1 / psy_rd=1.00:0.15 / mixed_ref=1 / me_range=32 / chroma_me=1 / trellis=2 / 8x8dct=1 / cqm=0 / deadzone=21,11 / fast_pskip=0 / chroma_qp_offset=-3 / threads=6 / lookahead_threads=1 / sliced_threads=0 / nr=0 / decimate=1 / interlaced=0 / bluray_compat=0 / constrained_intra=0 / bframes=8 / b_pyramid=2 / b_adapt=2 / b_bias=0 / direct=1 / weightb=1 / open_gop=0 / weightp=2 / keyint=230 / keyint_min=23 / scenecut=40 / intra_refresh=0 / rc_lookahead=40 / rc=crf / mbtree=1 / crf=19.5 / qcomp=0.60 / qpmin=0 / qpmax=69 / qpstep=4 / vbv_maxrate=50000 / vbv_bufsize=62500 / crf_max=0.0 / nal_hrd=none / filler=0 / ip_ratio=1.40 / aq=1:1.00
Язык : English
Default : Да
Forced : Нет

Аудио #1
Идентификатор : 2
Формат : AC-3
Формат/Информация : Audio Coding 3
Коммерческое название : Dolby Digital
Идентификатор кодека : A_AC3
Продолжительность : 1 ч. 27 м.
Вид битрейта : Постоянный
Битрейт : 192 Кбит/сек
Каналы : 2 канала
ChannelLayout : L R
Частота : 48,0 КГц
Частота кадров : 31,250 кадров/сек (1536 SPF)
Метод сжатия : С потерями
Размер потока : 120 Мбайт (1%)
Заголовок : DVO ГТРК Культура
Язык : Russian
ServiceKind/String : Complete Main
Default : Да
Forced : Нет

Аудио #2
Идентификатор : 3
Формат : AC-3
Формат/Информация : Audio Coding 3
Коммерческое название : Dolby Digital
Идентификатор кодека : A_AC3
Продолжительность : 1 ч. 27 м.
Вид битрейта : Постоянный
Битрейт : 192 Кбит/сек
Каналы : 2 канала
ChannelLayout : L R
Частота : 48,0 КГц
Частота кадров : 31,250 кадров/сек (1536 SPF)
Метод сжатия : С потерями
Размер потока : 120 Мбайт (1%)
Заголовок : DVO Film Prestige
Язык : Russian
ServiceKind/String : Complete Main
Default : Нет
Forced : Нет

Аудио #3
Идентификатор : 4
Формат : DTS
Формат/Информация : Digital Theater Systems
Идентификатор кодека : A_DTS
Продолжительность : 1 ч. 27 м.
Вид битрейта : Постоянный
Битрейт : 1509 Кбит/сек
Каналы : 2 канала
ChannelLayout : L R
Частота : 48,0 КГц
Частота кадров : 93,750 кадра/сек (512 SPF)
Битовая глубина : 16 бит
Метод сжатия : С потерями
Размер потока : 942 Мбайт (11%)
Заголовок : original
Язык : English
Default : Нет
Forced : Нет

Текст #1
Идентификатор : 5
Формат : UTF-8
Идентификатор кодека : S_TEXT/UTF8
Идентификатор кодека/Информация : UTF-8 Plain Text
Продолжительность : 1 ч. 26 м.
Битрейт : 117 бит/сек
ElementCount : 1245
Размер потока : 74,5 Кбайт (0%)
Заголовок : русские
Язык : Russian
Default : Нет
Forced : Нет

Текст #2
Идентификатор : 6
Формат : UTF-8
Идентификатор кодека : S_TEXT/UTF8
Идентификатор кодека/Информация : UTF-8 Plain Text
Продолжительность : 1 ч. 24 м.
Битрейт : 85 бит/сек
ElementCount : 1281
Размер потока : 52,8 Кбайт (0%)
Заголовок : английские
Язык : English
Default : Нет
Forced : Нет

Меню
00:00:00.000 : en:Chapter 00
00:09:25.398 : en:Chapter 01
00:19:47.477 : en:Chapter 02
00:31:00.650 : en:Chapter 03
00:43:27.646 : en:Chapter 04
00:53:51.478 : en:Chapter 05
01:04:28.906 : en:Chapter 06
01:13:46.964 : en:Chapter 07



Скачать Негодяи через торрент https://d.radikal.ru/d00/1910/19/2f5744a7b944.jpg Скачать, смотреть онлайн Негодяи бесплантно в хорошем качестве Описание: Конец девятнадцатого века, эпоха «золотой лихорадки», охватившей Аляску. На Клондайке правят лихие людишки: ловкие мошенники, ... 5 10 1
Info! Золотая раздача, скачанное не засчитывается.
Торрент: Зарегистрирован [2019-10-16 05:31] · скачан: 1 раз
Статус: √ проверено
Размер: 8.04 GB
Как cкачать? Как скачать Негодяи через торрент | UTorrent

% Раздел Тема Автор DL S | L
Классика зарубежного кино [ 3.02 GB ] Негодяи / The Spoilers | | 720p msltel Скачать
1 | 0
Классика зарубежного кино [ 1.84 GB ] Негодяи / The Spoilers | | BDRip (AVC msltel Скачать
1 | 0

28-11-2019 20:33  


Отключить вcю реклaмy на сайте, в т.ч. и в плеере онлайн просмотра!

    Дорогой пользователь! Огромная просьба, поблагодарите релизера, оцените раздачу и оставьте свои комментарий, если Вы скачали Негодяи через торрент бесплатно!!
    Комментировать посты могут только пользователи прошедшие не сложную регистрацию
    Показать сообщения:    


    Негодяи через торрент
    Скачать бесплатно Негодяи
    Негодяи скачать торрент
    Негодяи смотреть онлайн
    Cкачать фильм Негодяи бесплатно
    Негодяи скачать торрент в хорошем качестве
    Негодяи смотреть онлайн бесплатно в хорошем качестве
    Вы не можете начинать темы
    Вы не можете отвечать на сообщения
    Вы не можете редактировать свои сообщения
    Вы не можете удалять свои сообщения
    Вы не можете голосовать в опросах
    Вы не можете прикреплять файлы к сообщениям
    Вы можете скачивать файлы
    Негодяи / The Spoilers [1942, вестерн, драма, BDRip 1080p ] 2 x DVO смотреть онлайн, скачать торрент picoco.icu