Доктор Стрэндж

Лицензия

Добыча

MVO

Дом дракона

1 сезон

Тор

Лицензия

Мэверик

Лицензия

Там, где раки поют

MVO

Властелин колец

1 сезон

Ultimate

pack

Рекомендуем

30

Repack

ВАЖНО

ВАЖНО

Ghostwire

RePack

jed

RePack

nioh2

RePack

RDR2

RePack

NEED FOR SPEED™ PAYBACK

RePack

скачать торрент

Кинопоиск HD

Острые козырьки 6 сезон

6 сезон

FAR CRY 6

RePack

скачать торрент

Лицензия

скачать торрент

MVO

1

1 сезон

скачать торрент

1 сезон

скачать торрент

Лицензия

  

Главная роль / Competencia oficial / Official Competition (Мариано Кон, Гастон Дюпра) [2021, Драма, комедия, BDRip 720p] DUB [СиПиАй Филмз / CPI Films | Кинопоиск HD]

Главная роль через торрент 5050.piratbit.fun

Раздают: 2 [ 439 KB/s ]
Размер: 4.37 GB | Добавлен: 14 д. назад | Торрент скачан:63 раза
Смотреть онлайн Главная роль | Скачать   

18-09-2022 05:16 Главная роль Скачать торрент  

Главная роль
Competencia oficial / Official Competition

Год выпуска: 2021
Страна: Испания, Аргентина
Выпущено: The MediaPro Studio
Жанр: Драма, комедия
Продолжительность: 01:55:23
Перевод: Дублированный | СиПиАй Филмз / CPI Films | Кинопоиск HD
Субтитры: Русские (Forced, full), английские

Режиссер: Мариано Кон, Гастон Дюпра

rating

В ролях: Пенелопа Крус, Антонио Бандерас, Оскар Мартинес, Пилар Кастро, Мелина Мэтьюз, Ирена Эсколар, Карлос Иполито, Карина Колокольчикова, Хосе Луис Гомес, Нагоре Аранбуру

Описание: Миллиардер хочет оставить после себя след в истории и решает снять фильм. В проект своей мечты он берет именитую постановщицу Лолу Куэвас и двух известных артистов, чей талант не уступает их эго, а неприязнь вполне взаимна: голливудскую звезду Феликса Риверо и театрального актера-радикала Ивана Торреса.

Качество: BDRip 720p
Формат: MKV

Видео: MPEG-4 AVC, 1280x534, 3890 Kbit/s, 24.000 fps
Аудио #01: 48 kHz, AC3, 5.1, 448 Kbps | Дублированный | Кинопоиск HD (СиПиАй Филмз / CPI Films) | RUS |
Аудио #02: 48 kHz, E-AC3, 5.1, 448 Kbps | Дублированный | Кинопоиск HD (СиПиАй Филмз / CPI Films) | RUS |
Аудио #03: 48 kHz, AC3, 5.1, 640 Kbps | Оригинал | SPA |
скриншот  скриншот  скриншот  скриншот  скриншот  

General
Unique ID : 127386872970198287641927603837487894451 (0x5FD5D1BECAEF57EFABF4C5F0D6854FB3)
Complete name : D:Video0Official.Competition.2021.BDRip.720p.seleZen.mkv
Format : Matroska
Format version : Version 4
File size : 4.37 GiB
Duration : 1 h 55 min
Overall bit rate : 5 422 kb/s
Movie name : Official Competition 2021 from seleZen
Encoded date : UTC 2022-09-18 03:38:42
Writing application : mkvmerge v59.0.0 ('Shining Star') 64-bit
Writing library : libebml v1.4.2 + libmatroska v1.6.4

Video
ID : 1
Format : AVC
Format/Info : Advanced Video Codec
Format profile : [email protected]
Format settings : CABAC / 12 Ref Frames
Format settings, CABAC : Yes
Format settings, Reference : 12 frames
Codec ID : V_MPEG4/ISO/AVC
Duration : 1 h 55 min
Bit rate : 3 890 kb/s
Width : 1 280 pixels
Height : 534 pixels
Display aspect ratio : 2.40:1
Frame rate mode : Constant
Frame rate : 24.000 FPS
Color space : YUV
Chroma subsampling : 4:2:0
Bit depth : 8 bits
Scan type : Progressive
Bits/(Pixel*Frame) : 0.237
Stream size : 3.13 GiB (72%)
Writing library : x264 core 164 r3085+55M seleZen t_mod_New [(8 & 10)[email protected] X86_64]
Encoding settings : cabac=1 / ref=12 / deblock=1:-2:-2 / analyse=0x3:0x133 / me=umh / subme=10 / psy=1 / fade_compensate=0.00 / psy_rd=1.03:0.04 / mixed_ref=1 / me_range=32 / chroma_me=1 / trellis=2 / 8x8dct=1 / cqm=0 / deadzone=21,11 / fast_pskip=0 / chroma_qp_offset=-3 / threads=17 / lookahead_threads=2 / sliced_threads=0 / nr=0 / decimate=0 / interlaced=0 / bluray_compat=0 / constrained_intra=0 / fgo=0 / bframes=9 / b_pyramid=2 / b_adapt=2 / b_bias=0 / direct=3 / weightb=1 / open_gop=0 / weightp=2 / keyint=240 / keyint_min=24 / scenecut=40 / intra_refresh=0 / rc_lookahead=60 / rc=2pass / mbtree=0 / bitrate=3890 / ratetol=1.0 / qcomp=0.60 / qpmin=0:0:0 / qpmax=51:51:51 / qpstep=4 / cplxblur=20.0 / qblur=0.5 / vbv_maxrate=50000 / vbv_bufsize=62500 / nal_hrd=none / filler=0 / ip_ratio=1.40 / pb_ratio=1.30 / aq=3:0.80 / aq-sensitivity=10.00 / aq-factor=1.00:1.00:1.00 / aq2=0 / aq3=0
Language : English
Default : Yes
Forced : No

Audio #1
ID : 2
Format : AC-3
Format/Info : Audio Coding 3
Commercial name : Dolby Digital
Codec ID : A_AC3
Duration : 1 h 54 min
Bit rate mode : Constant
Bit rate : 448 kb/s
Channel(s) : 6 channels
Channel layout : L R C LFE Ls Rs
Sampling rate : 48.0 kHz
Frame rate : 31.250 FPS (1536 SPF)
Compression mode : Lossy
Stream size : 368 MiB (8%)
Title : Dub [СиПиАй Филмз / CPI Films]
Language : Russian
Service kind : Complete Main
Default : Yes
Forced : Yes

Audio #2
ID : 3
Format : E-AC-3
Format/Info : Enhanced AC-3
Commercial name : Dolby Digital Plus
Codec ID : A_EAC3
Duration : 1 h 54 min
Bit rate mode : Constant
Bit rate : 448 kb/s
Channel(s) : 6 channels
Channel layout : L R C LFE Ls Rs
Sampling rate : 48.0 kHz
Frame rate : 31.250 FPS (1536 SPF)
Compression mode : Lossy
Stream size : 368 MiB (8%)
Title : Dub [СиПиАй Филмз / CPI Films]
Language : Russian
Service kind : Complete Main
Default : No
Forced : No

Audio #3
ID : 4
Format : AC-3
Format/Info : Audio Coding 3
Commercial name : Dolby Digital
Codec ID : A_AC3
Duration : 1 h 55 min
Bit rate mode : Constant
Bit rate : 640 kb/s
Channel(s) : 6 channels
Channel layout : L R C LFE Ls Rs
Sampling rate : 48.0 kHz
Frame rate : 31.250 FPS (1536 SPF)
Compression mode : Lossy
Stream size : 528 MiB (12%)
Title : Original
Language : Spanish
Service kind : Complete Main
Default : No
Forced : No

Text #1
ID : 5
Format : UTF-8
Codec ID : S_TEXT/UTF8
Codec ID/Info : UTF-8 Plain Text
Duration : 1 h 41 min
Bit rate : 0 b/s
Frame rate : 0.002 FPS
Count of elements : 11
Stream size : 618 Bytes (0%)
Title : Forced
Language : Russian
Default : Yes
Forced : Yes

Text #2
ID : 6
Format : UTF-8
Codec ID : S_TEXT/UTF8
Codec ID/Info : UTF-8 Plain Text
Duration : 1 h 47 min
Bit rate : 100 b/s
Frame rate : 0.243 FPS
Count of elements : 1572
Stream size : 79.6 KiB (0%)
Title : Full [FOCS]
Language : Russian
Default : No
Forced : No

Text #3
ID : 7
Format : UTF-8
Codec ID : S_TEXT/UTF8
Codec ID/Info : UTF-8 Plain Text
Duration : 1 h 47 min
Bit rate : 58 b/s
Frame rate : 0.241 FPS
Count of elements : 1556
Stream size : 45.9 KiB (0%)
Title : SDH
Language : English
Default : No
Forced : No

Menu
00:00:00.000 : Глава 01
00:10:42.417 : Глава 02
00:22:27.708 : Глава 03
00:28:51.083 : Глава 04
00:40:23.917 : Глава 05
00:46:38.750 : Глава 06
00:59:27.833 : Глава 07
01:07:00.833 : Глава 08
01:17:59.042 : Глава 09
01:30:26.250 : Глава 10
01:36:01.125 : Глава 11
01:47:24.250 : Глава 12




Скачать Главная роль через торрент https://i120.fastpic.org/big/2022/0918/f6/22a0ccd4f7ca80929e8d3ecbef6b0af6.jpg Скачать, смотреть онлайн Главная роль бесплантно в хорошем качестве Описание: Миллиардер хочет оставить после себя след в истории и решает снять фильм. В проект своей мечты он берет именитую постановщицу ... 10 10 4
Торрент: Зарегистрирован [2022-09-18 05:16] · скачан: 63 раз
Статус: √ проверено
Размер: 4.37 GB
Как cкачать? Как скачать Главная роль через торрент | UTorrent

% Раздел Тема Автор DL S | L
Фильмы 2021 [DVDrip, WEB-DLRip, HDrip] (DUB, MVO) [ 718 MB ] Главная роль / Competencia oficial | Дубляж "СиПиАй Филмз | HDRip, Дубляж "СиПиАй Филмз / CPI Films" coc900 Скачать
2 | 0
Фильмы 2021 [DVDrip, WEB-DLRip, HDrip] (DUB, MVO) [ 2.21 GB ] Главная роль / Competencia oficial / Official Competition | DUB | BDRip-AVC Lithuania Скачать
4 | 0
Фильмы 2021 [DVDrip, WEB-DLRip, HDrip] (DUB, MVO) [ 2.18 GB ] Главная роль / Competencia oficial / Official Competition | DUB | BDRip-AVC bober100 Скачать
3 | 0
Фильмы [HD 720p, 1080p] (Хороший звук DUB, MVO) [ 7.68 GB ] Главная роль / Competencia oficial / Official Competition | DUB | 1080p bober100 Скачать
10 | 0
Фильмы (Blu-ray, BD-Remux, HDDVD) [ 19.38 GB ] Главная роль / Competencia oficial / Official Competition | DUB | BD Remux 1080p bober100 Скачать
2 | 0
Фильмы 2021 [DVDrip, WEB-DLRip, HDrip] (DUB, MVO) [ 1.46 GB ] Главная роль / Competencia oficial / Official Competition | DUB | DLRip bober100 Скачать
1 | 0

28-11-2019 20:33  

Отключить вcю реклaмy на сайте

18-09-2022 14:58 Главная роль Скачать торрент  

может мне кто-то подскажет зачем две одинаковые аудиодорожки? место занимать?))



19-09-2022 12:34 Главная роль Скачать торрент  

Весь фильм только 3 человека. Актёры играют вполне хорошо. Но концовка фильма смазана. От концовки ждал большего.



    Дорогой пользователь! Огромная просьба, поблагодарите релизера, оцените раздачу и оставьте свои комментарий, если Вы скачали Главная роль через торрент бесплатно!!
    Комментировать посты могут только пользователи прошедшие не сложную регистрацию
    Показать сообщения:    


    Главная роль через торрент
    Скачать бесплатно Главная роль
    Главная роль скачать торрент
    Главная роль смотреть онлайн
    Cкачать фильм Главная роль бесплатно
    Главная роль скачать торрент в хорошем качестве
    Главная роль смотреть онлайн бесплатно в хорошем качестве
    Вы не можете начинать темы
    Вы не можете отвечать на сообщения
    Вы не можете редактировать свои сообщения
    Вы не можете удалять свои сообщения
    Вы не можете голосовать в опросах
    Вы не можете прикреплять файлы к сообщениям
    Вы можете скачивать файлы