Доктор Стрэндж

Лицензия

Добыча

MVO

Дом дракона

1 сезон

Тор

Лицензия

Мэверик

Лицензия

Там, где раки поют

MVO

Властелин колец

1 сезон

Ultimate

pack

Рекомендуем

30

Repack

ВАЖНО

ВАЖНО

Ghostwire

RePack

jed

RePack

nioh2

RePack

RDR2

RePack

NEED FOR SPEED™ PAYBACK

RePack

скачать торрент

Кинопоиск HD

Острые козырьки 6 сезон

6 сезон

FAR CRY 6

RePack

скачать торрент

Лицензия

скачать торрент

MVO

1

1 сезон

скачать торрент

1 сезон

скачать торрент

Лицензия

  

Гарри Поттер и Дары Смерти: Часть 1 / Harry Potter and the Deathly Hallows: Part 1 (Дэвид Йэтс) [2010 г., фэнтези, драма, детектив, приключения, WEB-DLRip 720p / 60 FPS, Дубляж] (Open Matte) от R.G. HD-Films

Гарри Поттер и Дары Смерти: Часть 1 через торрент 5050.piratbit.fun

Качают: 1 [ 0 KB/s ]
Размер: 6.23 GB | Добавлен: 13 д. назад | Торрент скачан:16 раз
Смотреть онлайн Гарри Поттер и Дары Смерти: Часть 1 | Скачать   

18-09-2022 08:15 Гарри Поттер и Дары Смерти: Часть 1 Скачать торрент  

Гарри Поттер и Дары Смерти: Часть 1 / Harry Potter and the Deathly Hallows: Part 1
Год выпуска: 2010
Страна: США, Великобритания
Жанр: фэнтези, драма, детектив, приключения
Продолжительность: 02:26:03
Перевод: Дубляж
Субтитры: русские, английские

Режиссер: Дэвид Йэтс

rating

В ролях: Дэниэл Рэдклифф, Эмма Уотсон, Том Фелтон, Руперт Гринт, Бонни Райт, Алан Рикман, Рэйф Файнс, Хелена Бонем Картер, Майкл Гэмбон, Брендан Глисон, Джеральдин Сомервилль, Робби Колтрейн, Девон Мюррэй, Ник Моран, Джейсон Айзекс, Гай Генри

Описание: Гарри Поттера ждёт самое страшное испытание в жизни — смертельная схватка с Волан-де-Мортом. Ждать помощи не от кого — Гарри одинок, как никогда… Друзья и враги Гарри предстают в совершенно неожиданном свете. Граница между Добром и Злом становится всё призрачнее…

Качество: WEB-DLRip 720p / 60 FPS
Формат: MKV
Видео кодек: H.264
Аудио кодек: AC3
Видео: x264, 1280 x 720 ( 16:9 ), 5722 kbps, 60,000 fps, ( 0.103 bpp)
Аудио#1: Русский, AC-3, 48.0 KHz, 6 ch, 384 Kbps
Релиз от: Автор рипа: slaventi-69
x264 [info]: using cpu capabilities: MMX2 SSE2Fast SSSE3 SSE4.2 AVX AVX2 FMA3 LZCNT BMI1 BMI2
x264 [info]: profile High, level 4.1
x264 [info]: frame I:1723 Avg QP:12.99 size: 99889
x264 [info]: frame P:119533 Avg QP:14.17 size: 29192
x264 [info]: frame B:404555 Avg QP:16.43 size: 6444
x264 [info]: consecutive B-frames: 1.5% 3.0% 8.7% 14.7% 44.9% 27.3%


Общее
Уникальный идентификатор : 115833717271349698293089265360000571350 (0x5724C330FD1943CC2F9734BC2448D7D6)
Полное имя : G:\60 FPS\Harry.Potter.and.the.Deathly.Hallows.Part_1.(2010).WEB-DLRip.720p.(60 Fps).(Open Matte).mkv
Формат : Matroska
Версия формата : Version 4
Размер файла : 6,23 Гбайт
Продолжительность : 2 ч. 26 м.
Общий поток : 6111 Кбит/сек
Название фильма : Гарри Поттер и Дары Смерти: Часть 1 / Harry Potter and the Deathly Hallows: Part 1 (2010) WEB-DLRip 720p (60 Fps) (Open Matte)
Дата кодирования : UTC 2022-09-06 11:55:53
Программа кодирования : mkvmerge v69.0.0 ('Day And Age') 64-bit
Библиотека кодирования : libebml v1.4.2 + libmatroska v1.6.4

Видео
Идентификатор : 1
Формат : AVC
Формат/Информация : Advanced Video Codec
Профиль формата : [email protected]
Настройки формата : CABAC / 9 Ref Frames
Параметр CABAC формата : Да
Параметр RefFrames формата : 9 кадров
Идентификатор кодека : V_MPEG4/ISO/AVC
Продолжительность : 2 ч. 26 м.
Битрейт : 5722 Кбит/сек
Ширина : 1280 пикселей
Высота : 720 пикселей
Соотношение сторон : 16:9
Режим частоты кадров : Постоянный
Частота кадров : 60,000 кадров/сек
Цветовое пространство : YUV
Субдискретизация насыщенности : 4:2:0
Битовая глубина : 8 бит
Тип развёртки : Прогрессивная
Бит/(Пиксели*Кадры) : 0.103
Размер потока : 5,84 Гбайт (94%)
Заголовок : slaventi-69 ( R.G. HD-Films | 60 fps )
Библиотека кодирования : x264 core 130 r2273 b3065e6
Настройки программы : cabac=1 / ref=9 / deblock=1:-3:-3 / analyse=0x3:0x133 / me=umh / subme=9 / psy=1 / psy_rd=1.00:0.00 / mixed_ref=1 / me_range=32 / chroma_me=1 / trellis=2 / 8x8dct=1 / cqm=0 / deadzone=21,11 / fast_pskip=0 / chroma_qp_offset=-2 / threads=8 / lookahead_threads=4 / sliced_threads=0 / nr=0 / decimate=1 / interlaced=0 / bluray_compat=0 / constrained_intra=0 / bframes=5 / b_pyramid=2 / b_adapt=2 / b_bias=0 / direct=1 / weightb=1 / open_gop=0 / weightp=2 / keyint=600 / keyint_min=23 / scenecut=40 / intra_refresh=0 / rc=crf / mbtree=0 / crf=15.5 / qcomp=0.60 / qpmin=0 / qpmax=69 / qpstep=4 / ip_ratio=1.40 / pb_ratio=1.30 / aq=1:1.00
Язык : English
Default : Да
Forced : Нет

Аудио
Идентификатор : 2
Формат : AC-3
Формат/Информация : Audio Coding 3
Коммерческое название : Dolby Digital
Идентификатор кодека : A_AC3
Продолжительность : 2 ч. 26 м.
Вид битрейта : Постоянный
Битрейт : 384 Кбит/сек
Каналы : 6 каналов
Channel layout : L R C LFE Ls Rs
Частота : 48,0 КГц
Частота кадров : 31,250 кадров/сек (1536 SPF)
Битовая глубина : 16 бит
Метод сжатия : С потерями
Размер потока : 401 Мбайт (6%)
Заголовок : Dub
Язык : Russian
ServiceKind/String : Complete Main
Default : Да
Forced : Нет

Текст #1
Идентификатор : 3
Формат : UTF-8
Идентификатор кодека : S_TEXT/UTF8
Идентификатор кодека/Информация : UTF-8 Plain Text
Продолжительность : 2 ч. 11 м.
Битрейт : 76 бит/сек
ElementCount : 1339
Размер потока : 73,3 Кбайт (0%)
Язык : Russian
Default : Нет
Forced : Нет

Текст #2
Идентификатор : 4
Формат : UTF-8
Идентификатор кодека : S_TEXT/UTF8
Идентификатор кодека/Информация : UTF-8 Plain Text
Продолжительность : 2 ч. 11 м.
Битрейт : 46 бит/сек
ElementCount : 1612
Размер потока : 45,2 Кбайт (0%)
Язык : English
Default : Нет
Forced : Нет

Текст #3
Идентификатор : 5
Формат : UTF-8
Идентификатор кодека : S_TEXT/UTF8
Идентификатор кодека/Информация : UTF-8 Plain Text
Продолжительность : 2 ч. 12 м.
Битрейт : 53 бит/сек
ElementCount : 1986
Размер потока : 51,7 Кбайт (0%)
Заголовок : SDH
Язык : English
Default : Нет
Forced : Нет

Просьба к переливающим на другие сайты, в оформлении указывайте пожалуйста авторство группы R.G. HD-Films



Скачать Гарри Поттер и Дары Смерти: Часть 1 через торрент https://i120.fastpic.org/big/2022/0918/ca/fb0a6b4108a8f4f44a57d1f4d31b44ca.jpg Скачать, смотреть онлайн Гарри Поттер и Дары Смерти: Часть 1 бесплантно в хорошем качестве Описание: Гарри Поттера ждёт самое страшное испытание в жизни — смертельная схватка с Волан-де-Мортом. Ждать помощи не от кого — Гарри ... 10 10 1
Торрент: Зарегистрирован [2022-09-18 08:15] · скачан: 16 раз
Статус: √ проверено
Размер: 6.23 GB
Как cкачать? Как скачать Гарри Поттер и Дары Смерти: Часть 1 через торрент | UTorrent

% Раздел Тема Автор DL S | L
Фильмы [HD 720p, 1080p] (Хороший звук DUB, MVO) [ 11.27 GB ] Гарри Поттер и Дары смерти: Часть 1 / Harry Potter and the Deathly Hallows: Part 1 | | 1080p, лицензия SD Скачать
1 | 0
Фильмы [HD 720p, 1080p] (Хороший звук DUB, MVO) [ 7.76 GB ] Гарри Поттер и дары смерти: Часть 1 / Harry Potter and the Deathly Hallows: Part 1 | Дубляж + Оригинал | 1080p, Дубляж + Оригинал Бумер Скачать
2 | 0
3D Фильмы [ 6.1 GB ] Гарри Поттер и Дары смерти: Часть I / Harry Potter and the Deathly Hallows: Part 1 | Гарри Поттер и Дары смерти: Часть I / Harry Potter and the Deathly Hallows: Part 1 | BDRip/вертикальная анаморфная стереопара marik05 Скачать
1 | 0
Фильмы 2010 [ 2.05 GB ] Гарри Поттер и Дары смерти: Часть 1 / Harry Potter and the Deathly Hallows: Part 1 | | HDRip Lil Badun Скачать
1 | 0
Фильмы 2010 [ 2.91 GB ] Гарри Поттер и Дары смерти: Часть 1 / Harry Potter and the Deathly Hallows: Part 1 | | BDRip-AVC, (лицензия Vadlen Скачать
2 | 0
Фильмы [HD 720p, 1080p] (Хороший звук DUB, MVO) [ 6.66 GB ] Гарри Поттер и Дары смерти: Часть 1 / Harry Potter and the Deathly Hallows: Part 1 | | 720p Чупачупсик Скачать
1 | 0
Фильмы [HD 720p, 1080p] (Хороший звук DUB, MVO) [ 2.13 GB ] Гарри Поттер и Дары смерти: Часть 1 / Harry Potter and the Deathly Hallows: Part 1 | | 720p ACFIORENTINA Скачать
1 | 0

28-11-2019 20:33  

Отключить вcю реклaмy на сайте

    Дорогой пользователь! Огромная просьба, поблагодарите релизера, оцените раздачу и оставьте свои комментарий, если Вы скачали Гарри Поттер и Дары Смерти: Часть 1 через торрент бесплатно!!
    Комментировать посты могут только пользователи прошедшие не сложную регистрацию
    Показать сообщения:    


    Гарри Поттер и Дары Смерти: Часть 1 через торрент
    Скачать бесплатно Гарри Поттер и Дары Смерти: Часть 1
    Гарри Поттер и Дары Смерти: Часть 1 скачать торрент
    Гарри Поттер и Дары Смерти: Часть 1 смотреть онлайн
    Cкачать фильм Гарри Поттер и Дары Смерти: Часть 1 бесплатно
    Гарри Поттер и Дары Смерти: Часть 1 скачать торрент в хорошем качестве
    Гарри Поттер и Дары Смерти: Часть 1 смотреть онлайн бесплатно в хорошем качестве
    Вы не можете начинать темы
    Вы не можете отвечать на сообщения
    Вы не можете редактировать свои сообщения
    Вы не можете удалять свои сообщения
    Вы не можете голосовать в опросах
    Вы не можете прикреплять файлы к сообщениям
    Вы можете скачивать файлы