Доктор Стрэндж

Лицензия

Добыча

MVO

Дом дракона

1 сезон

Тор

Лицензия

Мэверик

Лицензия

Там, где раки поют

MVO

Властелин колец

1 сезон

Ultimate

pack

Рекомендуем

30

Repack

ВАЖНО

ВАЖНО

Ghostwire

RePack

jed

RePack

nioh2

RePack

RDR2

RePack

NEED FOR SPEED™ PAYBACK

RePack

скачать торрент

Кинопоиск HD

Острые козырьки 6 сезон

6 сезон

FAR CRY 6

RePack

скачать торрент

Лицензия

скачать торрент

MVO

1

1 сезон

скачать торрент

1 сезон

скачать торрент

Лицензия

  

Барабашка / Сезон: 1 / Серии: 1-8 из 8 (Александр Собичевский) [2022, Комедия, WEBRip 1080p]

Барабашка через торрент 5050.piratbit.fun

Раздают: 27 [ 1 MB/s ] Качают: 1 [ 0 KB/s ]
Размер: 6 GB | Добавлен: 10 д. назад | Торрент скачан:261 раз
Смотреть онлайн Барабашка | Скачать   

19-09-2022 04:51 Барабашка Скачать торрент  

Барабашка
Год выпуска: 2022
Страна: Россия
Жанр: Комедия
Продолжительность: ~ 00:25:00
Перевод: Не требуется
Субтитры: отсутствуют

Режиссер: Александр Собичевский

rating

В ролях: Антон Филипенко, Ольга Дибцева, Николай Шрайбер, Тимофей Трибунцев, Максим Лагашкин, Сергей Дьячковский, Владимир Симонов, Евгений Муравич, Степан Девонин, Сергей Аброскин, Фёдор Бондарчук, Иса Новиков, Татьяна Мухина, Антон Юрьев

Описание: Артём сидит дома на карантине. Поначалу ему даже нравится, что он предоставлен самому себе - семья на даче, начальник хоть и возникает с нелепыми инициативами, но только по телефону. И все бы хорошо, но вскоре Артем начинает замечать странные вещи: половина яичницы исчезает на глазах, стакан с виски сам переезжает в ванную, а на холодильнике появляется непристойный рисунок из магнитиков. Пытаясь разобраться, Артём понимает, что во всем виноват… барабашка, которого нужно извести любой ценой.

Качество: WEBRip 1080p
Формат: MKV

Видео: MPEG-4 AVC, 1920x1072, ~ 4500 Кбит/с, 0.085 bit/pixel, 25 Кадр/с
Аудио: 48.0 kHz, AC3 Dolby Digital, 2/0 (L,R) ch, ~ 192 kbps
скриншот  скриншот  скриншот  скриншот  скриншот  скриншот  

Общее
Уникальный идентификатор : 262587091534049320036792346254897188911 (0xC58C6F2BA164DD339883B86CD952102F)
Полное имя : D:\Barabashka.S01.2022.WEBRip.1080p\Barabashka.S01.E01.2022.WEBRip.1080p.mkv
Формат : Matroska
Версия формата : Version 4
Размер файла : 859 Мбайт
Продолжительность : 26 м. 8 с.
Режим общего битрейта : Переменный
Общий поток : 4 594 Кбит/сек
Название фильма : Barabashka.S01.E01.2022.WEBRip.1080p
Дата кодирования : UTC 2022-09-18 21:03:26
Программа кодирования : mkvmerge v68.0.0 ('The Curtain') 64-bit
Библиотека кодирования : libebml v1.4.2 + libmatroska v1.6.4
Attachments : poster.jpg

Видео
Идентификатор : 1
Формат : AVC
Формат/Информация : Advanced Video Codec
Профиль формата : [email protected]
Настройки формата : CABAC / 2 Ref Frames
Параметр CABAC формата : Да
Параметр RefFrames формата : 2 кадра
Идентификатор кодека : V_MPEG4/ISO/AVC
Продолжительность : 26 м. 8 с.
Вид битрейта : Переменный
Битрейт : 4 398 Кбит/сек
Максимальный битрейт : 4 500 Кбит/сек
Ширина : 1 920 пикселей
Высота : 1 072 пикселя
Соотношение сторон : 16:9
Режим частоты кадров : Постоянный
Частота кадров : 25,000 кадров/сек
Цветовое пространство : YUV
Субдискретизация насыщенности : 4:2:0
Битовая глубина : 8 бит
Тип развёртки : Прогрессивная
Бит/(Пиксели*Кадры) : 0.085
Размер потока : 822 Мбайт (96%)
Default : Да
Forced : Нет
Цветовой диапазон : Limited
Основные цвета : BT.709
Характеристики трансфера : BT.709
Коэффициенты матрицы : BT.709

Аудио
Идентификатор : 2
Формат : AC-3
Формат/Информация : Audio Coding 3
Коммерческое название : Dolby Digital
Идентификатор кодека : A_AC3
Продолжительность : 26 м. 8 с.
Вид битрейта : Постоянный
Битрейт : 192 Кбит/сек
Каналы : 2 канала
Channel layout : L R
Частота : 48,0 КГц
Частота кадров : 31,250 кадров/сек (1536 SPF)
Метод сжатия : С потерями
Задержка видео : -120 мс.
Размер потока : 35,9 Мбайт (4%)
Service kind : Complete Main
Default : Да
Forced : Нет

Внимание! Раздача ведётся путём добавления новых серий; при каждом добавлении создаётся новый торрент.
Чтобы начать докачку новой серии, пользователям необходимо сделать следующее:
1. Остановить скачивание;
2. Удалить старый торрент у себя из клиента (старые серии удалять не надо);
3. Скачать новый торрент и запустить его у себя в клиенте вместо старого, при этом указать клиенту путь в старую папку куда и должно происходить скачивание новых серий. Ваш клиент при этом должен произвести хеширование (проверку) старой папки и будет докачивать только те серии, которых у вас ещё нет. Старые серии при этом не удаляются, а продолжают раздаваться! Eсли вы уже удалили старые серии, то предотвратить повторную закачку старых серий можно, отжав галочку в соответствующих местах при запуске нового торрента.



Скачать Барабашка через торрент https://i120.fastpic.org/big/2022/0918/ff/f61fbe3f3bc98ff86fdd4e2ada0c33ff.jpg Скачать, смотреть онлайн Барабашка бесплантно в хорошем качестве Описание: Артём сидит дома на карантине. Поначалу ему даже нравится, что он предоставлен самому себе - семья на даче, начальник хоть и ... 9.2 10 23
Торрент: Зарегистрирован [2022-09-22 03:42] · скачан: 261 раз
Статус: √ проверено
Размер: 6 GB
Как cкачать? Как скачать Барабашка через торрент | UTorrent




Последний раз редактировалось: bober100 (2022-09-22 03:42), всего редактировалось 2 раз(а)

28-11-2019 20:33  

Отключить вcю реклaмy на сайте

21-09-2022 13:18 Барабашка Скачать торрент  

прикольный сериал. ну жена у него и мразь...



22-09-2022 14:20 Барабашка Скачать торрент  

Всем, Здрасьте! В avi будет раздача?



    Дорогой пользователь! Огромная просьба, поблагодарите релизера, оцените раздачу и оставьте свои комментарий, если Вы скачали Барабашка через торрент бесплатно!!
    Комментировать посты могут только пользователи прошедшие не сложную регистрацию
    Показать сообщения:    


    Барабашка через торрент
    Скачать бесплатно Барабашка
    Барабашка скачать торрент
    Барабашка смотреть онлайн
    Cкачать фильм Барабашка бесплатно
    Барабашка скачать торрент в хорошем качестве
    Барабашка смотреть онлайн бесплатно в хорошем качестве
    Вы не можете начинать темы
    Вы не можете отвечать на сообщения
    Вы не можете редактировать свои сообщения
    Вы не можете удалять свои сообщения
    Вы не можете голосовать в опросах
    Вы не можете прикреплять файлы к сообщениям
    Вы можете скачивать файлы