Доктор Стрэндж

Лицензия

Добыча

MVO

Дом дракона

1 сезон

Тор

Лицензия

Мэверик

Лицензия

Там, где раки поют

MVO

Властелин колец

1 сезон

Ultimate

pack

Рекомендуем

30

Repack

ВАЖНО

ВАЖНО

Ghostwire

RePack

jed

RePack

nioh2

RePack

RDR2

RePack

NEED FOR SPEED™ PAYBACK

RePack

скачать торрент

Кинопоиск HD

Острые козырьки 6 сезон

6 сезон

FAR CRY 6

RePack

скачать торрент

Лицензия

скачать торрент

MVO

1

1 сезон

скачать торрент

1 сезон

скачать торрент

Лицензия

  

Капельник / Сезон: 1 / Серии: 1-6 из 6 (Илья Аксёнов) [2022, Драма, комедия, WEBRip-AVC]

Капельник через торрент 5050.piratbit.fun

Раздают: 13 [ 255 KB/s ] Качают: 4 [ 0 KB/s ]
Размер: 3.54 GB | Добавлен: 12 д. назад | Торрент скачан:59 раз
Смотреть онлайн | Скачать   

22-09-2022 23:34 Капельник Скачать торрент  

Капельник
Год выпуска: 2022
Страна: Россия
Выпущено: 1-2-3 Production
Жанр: Драма, комедия
Продолжительность: ~ 00:56:00
Перевод: Не требуется
Субтитры: отсутствуют

Режиссер: Илья Аксёнов



В ролях: Денис Прытков, Анастасия Резник, Сергей Лавыгин, Александр Ратников, Сергей Стёпин, Никита Никитин, Мария Фурина, Герман Черных, Алексей Тахаров, Никита Павленко, Егор Заховаев, Антон Васильев, Гоша Куценко, Михаил Солодко

Описание: Ваня – анестезиолог-реаниматолог, работающий в московской клинике. Несколько лет назад его девушка Маша умерла от передозировки, а её маму, после такой трагедии, парализовало. Ваня испытывает чувство вины и пытается хоть как-то исправить ошибки прошлого – для этого необходимо собрать крупную сумму денег на операцию маме, и единственный реальный вариант их заработать – стать «капельником» – человеком, который незаконно «откачивает» богатых и знаменитых.

Качество: WEBRip-AVC
Формат: MKV

Видео: MPEG-4 AVC, ~ 1600 Кбит/с, 864x576, 25 кадр/с
Аудио: 48.0 kHz, AC3 Dolby Digital, 2/0 (L,R) ch, ~ 192 kbps
скриншот  скриншот  скриншот  скриншот  

General
Unique ID : 225934989242774396562235120243803629216 (0xA9F97F022997D7FCAD8A1AA4E27326A0)
Complete name : F:\Капельник.(2022).WEBRip.(AVC).Files-x\01.Капельник.(2022).WEBRip.(AVC).by.Серый1779.Files-x.mkv
Format : Matroska
Format version : Version 2
File size : 721 MiB
Duration : 56 min 9 s
Overall bit rate : 1 794 kb/s
Encoded date : UTC 2022-09-15 09:33:04
Writing application : mkvmerge v7.8.0 ('River Man') 32bit built on Apr 3 2015 12:11:22
Writing library : libebml v1.3.1 + libmatroska v1.4.2

Video
ID : 1
Format : AVC
Format/Info : Advanced Video Codec
Format profile : [email protected]
Format settings : CABAC / 9 Ref Frames
Format settings, CABAC : Yes
Format settings, RefFrames : 9 frames
Codec ID : V_MPEG4/ISO/AVC
Duration : 56 min 9 s
Bit rate : 1 600 kb/s
Width : 864 pixels
Height : 576 pixels
Display aspect ratio : 3:2
Frame rate mode : Constant
Frame rate : 25.000 FPS
Color space : YUV
Chroma subsampling : 4:2:0
Bit depth : 8 bits
Scan type : Progressive
Bits/(Pixel*Frame) : 0.129
Stream size : 629 MiB (87%)
Writing library : x264 core 146 r2538 121396c
Encoding settings : cabac=1 / ref=9 / deblock=1:-2:-1 / analyse=0x3:0x133 / me=umh / subme=9 / psy=1 / psy_rd=1.00:0.15 / mixed_ref=1 / me_range=32 / chroma_me=1 / trellis=2 / 8x8dct=1 / cqm=0 / deadzone=21,11 / fast_pskip=0 / chroma_qp_offset=-3 / threads=18 / lookahead_threads=3 / sliced_threads=0 / nr=0 / decimate=1 / interlaced=0 / bluray_compat=0 / constrained_intra=0 / bframes=9 / b_pyramid=2 / b_adapt=2 / b_bias=0 / direct=1 / weightb=1 / open_gop=0 / weightp=2 / keyint=250 / keyint_min=25 / scenecut=40 / intra_refresh=0 / rc=2pass / mbtree=0 / bitrate=1600 / ratetol=1.0 / qcomp=0.60 / qpmin=0 / qpmax=69 / qpstep=4 / cplxblur=20.0 / qblur=0.5 / ip_ratio=1.40 / pb_ratio=1.30 / aq=2:1.00
Default : Yes
Forced : No
Color range : Limited
Color primaries : BT.709
Transfer characteristics : BT.709
Matrix coefficients : BT.709

Audio
ID : 2
Format : AC-3
Format/Info : Audio Coding 3
Format settings, Endianness : Big
Codec ID : A_AC3
Duration : 56 min 9 s
Bit rate mode : Constant
Bit rate : 192 kb/s
Channel(s) : 2 channels
Channel positions : Front: L R
Sampling rate : 48.0 kHz
Frame rate : 31.250 FPS (1536 SPF)
Bit depth : 16 bits
Compression mode : Lossy
Stream size : 77.1 MiB (11%)
Service kind : Complete Main
Default : Yes
Forced : No




Скачать Капельник через торрент https://i120.fastpic.org/big/2022/0915/43/264e0bd40f720859d333dd2fcf18f843.jpg Скачать, смотреть онлайн Капельник бесплантно в хорошем качестве Описание: Ваня – анестезиолог-реаниматолог, работающий в московской клинике. Несколько лет назад его девушка Маша умерла от передозировки, ... 10 10 5
Торрент: Зарегистрирован [2022-09-22 23:34] · скачан: 59 раз
Статус: √ проверено
Размер: 3.54 GB
Как cкачать? Как скачать Капельник через торрент | UTorrent

% Раздел Тема Автор DL S | L
Сериалы ТНТ [ 3.71 GB ] Капельник / Сезон: 1 / Серии: 1-6 из 6 | | WEBRip bober100 Скачать
14 | 3
Сериалы ТНТ [ 9.1 GB ] Капельник / Сезон: 1 / Серии: 1-6 из 6 | | 1080p bober100 Скачать
22 | 3

28-11-2019 20:33  


Отключить вcю реклaмy на сайте, в т.ч. и в плеере онлайн просмотра!

    Дорогой пользователь! Огромная просьба, поблагодарите релизера, оцените раздачу и оставьте свои комментарий, если Вы скачали Капельник через торрент бесплатно!!
    Комментировать посты могут только пользователи прошедшие не сложную регистрацию
    Показать сообщения:    


    Капельник через торрент
    Скачать бесплатно Капельник
    Капельник скачать торрент
    Капельник смотреть онлайн
    Cкачать фильм Капельник бесплатно
    Капельник скачать торрент в хорошем качестве
    Капельник смотреть онлайн бесплатно в хорошем качестве
    Вы не можете начинать темы
    Вы не можете отвечать на сообщения
    Вы не можете редактировать свои сообщения
    Вы не можете удалять свои сообщения
    Вы не можете голосовать в опросах
    Вы не можете прикреплять файлы к сообщениям
    Вы можете скачивать файлы