Доктор Стрэндж

Лицензия

Добыча

Дубляж

Дом дракона

1 сезон

Тор

Дубляж

В эфире

Дубляж

Там, где раки поют

MVO

Властелин колец

1 сезон

Ultimate

pack

Рекомендуем

30

Пиратка

ВАЖНО

ВАЖНО

Ghostwire

Пиратка

jed

RePack

nioh2

RePack

RDR2

RePack

NEED FOR SPEED™ PAYBACK

RePack

скачать торрент

Кинопоиск HD

Острые козырьки 6 сезон

6 сезон

FAR CRY 6

RePack

скачать торрент

Лицензия

скачать торрент

MVO

1

1 сезон

скачать торрент

1 сезон

скачать торрент

Лицензия

  

Смешная девчонка / Funny Girl (Уильям Уайлер) [1968 г., мюзикл, драма, мелодрама, комедия, биография, DVDRip, Дубляж (лицензия)]

Смешная девчонка через торрент 5050.piratbit.fun

Размер: 1.73 GB | Добавлен: 10 лет назад | Торрент скачан:27 раз
Смотреть онлайн | Скачать   

04-08-2012 15:32 Смешная девчонка Скачать торрент  

Смешная девчонка / Funny Girl

Год выпуска: 1968
Страна: США
Жанр: мюзикл, драма, мелодрама, комедия, биография
Продолжительность: 02:28:54
Перевод: Дубляж (Лицензия)

Режиссер: Уильям Уайлер
Продюссер: Рэй Старк
Сценарий: Изобель Леннарт

Бюджет: $14 100 000
Премьера в мире: 18 сентября 1968

MPAA: G - нет возрастных ограничений
IMDb: 7.30 (7 319)
Кинопоиск: 8.122 1 599

В ролях: Барбра Стрейзанд, Омар Шариф, Кэй Медфорд, Энн Фрэнсис, Уолтер Пиджн, Ли Аллен, Мэй Куэстел, Джералд Мор, Фрэнк Фэйлин, Митти Лоуренс, Гертруде Флинн, Пенни Сантон, Джон Хэрмон, Беттина Бренна, Тордис Брандт, Инга Нилсен, Шарон Вон

Описание: На пути к славе и успеху, Фанни Брайс пришлось пройти от гадкого утенка до прекрасного лебедя. На сцене она — звезда, охапки роз падают к ногам, зал взрывается овациями.

Но за эти упоительные, волшебные секунды ей приходится расплачиваться горькими, одинокими ночами, полными слез и ревности.

Доп. информация: Смешная девчонка — фильм о том, как гадкий утенок достигает успеха. Вроде бы ничего, хорошая тема. Да вот утенок-то не просто добивается высот, он делает стремительную карьеру, при чем непонятно совершенно, за какие такие такие заслуги. Бедная провинциальная девушка, не особо одаренная внешними данными (Стрейзанд — она такая), в один миг превращается из одержимой навязчивой идеей прославиться бездарности, мнящей себя великой актрисой, в таки актрису, исполнительницу главных ролей козырного театра. К тому же она якобы шикарно поет (судите сами).

На первом своем серьезном выступлении (напомню, она мечтала о нем все жизнь) девица позволяет себе «пошутить», на свое усмотрение поменяв сценарий пьесы прямо во время представления… ну не нравилась ей эта сцена. По логике должны ее уволить — ан нет! Публике понравилось! Похоже, любое действие, делаемое героем американских фильмов на сцене, вызывает у зрителей неподдельный восторг.

Что еще примечательно — утенок не превращается в лебедя — вот вам разрыв шаблона. Он просто более аккуратно причесывается и наносит макияж. В этом, видимо, следует усмотреть подачу надежды таким вот не очень привлекательным девушкам. Я не против, но не так ведь банально! Жизнь героини идет как по маслу. Она делает нелепости — они оборачиваются к лучшему. Ну не бывает так. Любой, попробующий повторить действия Фанни, рискует потерять работу и доверие.

Только в завершение фильма появляется у девушки проблема, не буду писать, какая, ибо не собираюсь раскрывать сценарий полностью. Кто-то найдет в этом фильме что-то хорошее, светлое, вечное — тому свидетельство — довольно высокий рейтинг фильма. Так что не буду отговаривать от просмотра, я только высказал свое мнение.
Фрэнк Синатра претендовал на роль Ника Арнстина, но Барбра Стрейзанд «забраковала» кандидатуру Синатры, потому что он не нравился Стрейзанд, и она не хотела с ним играть.
Уильям Уайлер пришел в проект после ухода Сидни Люмета. Последний отказался снимать «Смешную девчонку» из-за разногласий с продюсером Рэем Старком и исполнительницей главной роли Барброй Стрейзанд.
«Смешная девчонка» стала самым кассовым фильмом 1968 года.
Продюсер фильма Рэй Старк - муж дочери реальной Фанни Брайс, Фрэнсис.

Качество: DVDRip
Формат: AVI
Видео кодек: XviD
Аудио кодек: MP3
Видео: 720x312 (2.31:1), 25 fps, XviD build 55 ~1253 kbps avg, 0.22 bit/pixel
Аудио#1: 48 kHz, MPEG Layer 3, 2 ch, ~128.00 kbps avg (Советский дубляж)
Аудио#2: 48 kHz, MPEG Layer 3, 2 ch, ~128.00 kbps avg (Профессиональный закадровый)
Аудио#3: 48 kHz, MPEG Layer 3, 2 ch, ~128.00 kbps avg (Английский-оригинал)










Общее
Полное имя : H:torrentSmeshnaja.devchonka.1968.XviD.DVDRip.сторонний ресурс.avi
Формат : AVI
Формат/Информация : Audio Video Interleave
Размер файла : 1,73 Гбайт
Продолжительность : 2 ч. 28 м.
Общий поток : 1659 Кбит/сек
Название фильма : Смешная девчонка / Funny Girl / (1968)
Программа кодирования : VirtualDubMod 1.5.10.2 (build 2542/release)
Примечание : www.fenixclub.com

Видео
Идентификатор : 0
Формат : MPEG-4 Visual
Профиль формата : Advanced [email protected]
Параметр BVOP формата : 1
Параметр QPel формата : Нет
Параметр GMC формата : Без точки перехода
Параметр матрицы формата : Default (MPEG)
Идентификатор кодека : XVID
Идентификатор кодека/Подсказка : XviD
Продолжительность : 2 ч. 28 м.
Битрейт : 1255 Кбит/сек
Ширина : 720 пикс.
Высота : 312 пикс.
Соотношение сторон : 2,35:1
Частота кадров : 25,000 кадр/сек
Цветовое пространство : YUV
Подвыборка цветности : 4:2:0
Битовая глубина : 8 бит
Тип развёртки : Прогрессивная
Метод сжатия : С потерями
Бит/(Пиксели*Кадры) : 0.224
Размер потока : 1,31 Гбайт (76%)
Библиотека кодирования : XviD 1.3.0.dev55

Аудио #1
Идентификатор : 1
Формат : MPEG Audio
Версия формата : Version 1
Профиль формата : Layer 3
Режим : Joint stereo
Расширение режима : MS Stereo
Идентификатор кодека : 55
Идентификатор кодека/Подсказка : MP3
Продолжительность : 2 ч. 28 м.
Вид битрейта : Постоянный
Битрейт : 128 Кбит/сек
Каналы : 2 канала
Частота : 48,0 КГц
Метод сжатия : С потерями
Размер потока : 136 Мбайт (8%)
Выравнивание : Соединение по промежуткам
Продолжительность промежутка : 40 мс. (1,00 видеокадр)
Время предзагрузки промежутка : 504 ms

Аудио #2
Идентификатор : 2
Формат : MPEG Audio
Версия формата : Version 1
Профиль формата : Layer 3
Режим : Joint stereo
Расширение режима : MS Stereo
Идентификатор кодека : 55
Идентификатор кодека/Подсказка : MP3
Продолжительность : 2 ч. 28 м.
Вид битрейта : Постоянный
Битрейт : 128 Кбит/сек
Каналы : 2 канала
Частота : 48,0 КГц
Метод сжатия : С потерями
Размер потока : 136 Мбайт (8%)
Выравнивание : Соединение по промежуткам
Продолжительность промежутка : 40 мс. (1,00 видеокадр)
Время предзагрузки промежутка : 504 ms

Аудио #3
Идентификатор : 3
Формат : MPEG Audio
Версия формата : Version 1
Профиль формата : Layer 3
Режим : Joint stereo
Расширение режима : MS Stereo
Идентификатор кодека : 55
Идентификатор кодека/Подсказка : MP3
Продолжительность : 2 ч. 28 м.
Вид битрейта : Постоянный
Битрейт : 128 Кбит/сек
Каналы : 2 канала
Частота : 48,0 КГц
Метод сжатия : С потерями
Размер потока : 136 Мбайт (8%)
Выравнивание : Соединение по промежуткам
Продолжительность промежутка : 40 мс. (1,00 видеокадр)
Время предзагрузки промежутка : 504 ms




Скачать Смешная девчонка через торрент https://pic1.kartinco.top/images/111/lnqpb2yb3z.jpg Скачать, смотреть онлайн Смешная девчонка бесплантно в хорошем качестве Описание: На пути к славе и успеху, Фанни Брайс пришлось пройти от гадкого утенка до прекрасного лебедя. На сцене она — звезда, охапки роз ... 5 10 2
Info! Золотая раздача, скачанное не засчитывается.
Торрент: Зарегистрирован [2012-08-04 15:32] · скачан: 27 раз
Статус: √ проверено
Размер: 1.73 GB
Как cкачать? Как скачать Смешная девчонка через торрент | UTorrent

% Раздел Тема Автор DL S | L
Классика зарубежного кино [ 17.42 GB ] Смешная девчонка / Funny Girl | DUB | 1080p msltel Скачать
1 | 0
Классика зарубежного кино [ 6.37 GB ] Смешная девчонка / Funny Girl | DUB | 720p msltel Скачать
1 | 0
Классика зарубежного кино [ 3.9 GB ] Смешная девчонка / Funny Girl | DUB | BDRip AVC msltel Скачать
1 | 0

28-11-2019 20:33  


Отключить вcю реклaмy на сайте, в т.ч. и в плеере онлайн просмотра!

    Дорогой пользователь! Огромная просьба, поблагодарите релизера, оцените раздачу и оставьте свои комментарий, если Вы скачали Смешная девчонка через торрент бесплатно!!
    Комментировать посты могут только пользователи прошедшие не сложную регистрацию
    Показать сообщения:    


    Смешная девчонка через торрент
    Скачать бесплатно Смешная девчонка
    Смешная девчонка скачать торрент
    Смешная девчонка смотреть онлайн
    Cкачать фильм Смешная девчонка бесплатно
    Смешная девчонка скачать торрент в хорошем качестве
    Смешная девчонка смотреть онлайн бесплатно в хорошем качестве
    Вы не можете начинать темы
    Вы не можете отвечать на сообщения
    Вы не можете редактировать свои сообщения
    Вы не можете удалять свои сообщения
    Вы не можете голосовать в опросах
    Вы не можете прикреплять файлы к сообщениям
    Вы можете скачивать файлы
    Смешная девчонка / Funny Girl [1968 г., мюзикл, драма, мелодрама, комедия, биография, DVDRip, Дубляж ] смотреть онлайн, скачать торрент picoco.icu