Доктор Стрэндж

Лицензия

Добыча

Дубляж

Дом дракона

1 сезон

Тор

Дубляж

В эфире

Дубляж

Там, где раки поют

MVO

Властелин колец

1 сезон

Ultimate

pack

Рекомендуем

30

Пиратка

ВАЖНО

ВАЖНО

Ghostwire

Пиратка

jed

RePack

nioh2

RePack

RDR2

RePack

NEED FOR SPEED™ PAYBACK

RePack

скачать торрент

Кинопоиск HD

Острые козырьки 6 сезон

6 сезон

FAR CRY 6

RePack

скачать торрент

Лицензия

скачать торрент

MVO

1

1 сезон

скачать торрент

1 сезон

скачать торрент

Лицензия

  

Теодора (Феодора, императрица византийская) / Teodora, imperatrice di Bisanzio (Риккардо Фреда) [1954 г., драма, мелодрама, приключения, SATRip, VO]

Теодора через торрент 5050.piratbit.fun

Размер: 870 MB | Добавлен: 10 лет назад | Торрент скачан:14 раз
Смотреть онлайн | Скачать   

05-11-2012 14:56 Теодора Скачать торрент  

Теодора (Феодора, императрица византийская) / Teodora, imperatrice di Bisanzio

Год выпуска: 1954
Страна: Италия, Франция, Lux Compagnie Cinématographique de France, Lux Film S.p.a.
Жанр: драма, мелодрама, приключения
Продолжительность: 01:27:01
Перевод: Любительский одноголосый

Режиссер: Риккардо Фреда
Продюссер: G.S. Fatigati
Сценарий: Риккардо Фреда, Claude Accursi, Ranieri Cochetti

Премьера в мире: 2 июля 1954

http://www.kinopoisk.ru/film/120572

В ролях: Жанна Мария Канале, Жорж Маршаль, Ренато Бальдини, Анри Гисоль, Ирен Папас, Карло Спозито, Ольга Сольбелли, Алессандро Ферзен, Роже Пиго, Лорис Гицци, Умберто Сильвестри, Марио Силетти, Оскар Андриани, Армандо Аннуале, Нерио Бернарди, Микеле Риккардини

Описание: 547 год от Рождества Христова, расцвет Византийской империи. Здесь издавна идет борьба между патрициями (Синими) и народом (Зелеными). Народ ненавидит Иоанна Каппадокийца, императорского министра и лидера патрициев... Император Юстиниан I встречает прекрасную танцовщицу Теодору, влюбляется и женится на ней. Став императрицей Теодора начинает принимать активное участие в государственных делах, что не нравится придворной аристократии во главе с Иоанном Каппадокийцем, чье влияние на императора падает. Чтобы убрать императрицу они составляют заговор...

Доп. информация: Теодора, римская куртизанка и бывшая рабыня, выходит замуж за римского императора Юстиниана и принимает трон как Императрица Рима.

Качество: SATRip
Формат: AVI
Видео кодек: DivX
Аудио кодек: AC3
Видео: MPEG-4 Visual, DivX 5, 999 Кбит/сек, 640*480 пикселей, 25,000 кадров/сек
Аудио#1: AC-3, 192 Кбит/сек, 2 канала, 48,0 КГц (РУССКИЙ)
Аудио#2: AC-3, 192 Кбит/сек, 2 канала, 48,0 КГц (ИТАЛЬЯНСКИЙ)



https://youtu.be/-G7m12cAHWQ


Формат : AVI
Формат/Информация : Audio Video Interleave
Размер файла : 870 Мбайт
Продолжительность : 1 ч. 27 м.
Общий поток : 1398 Кбит/сек
Программа кодирования : VirtualDubModRus 1.5.10.2 (build 2542/release)
Библиотека кодирования : VirtualDubMod build 2542/release

Видео
Идентификатор : 0
Формат : MPEG-4 Visual
Профиль формата : [email protected]
Параметр BVOP формата : Нет
Параметр QPel формата : Нет
Параметр GMC формата : Без точки перехода
Параметр матрицы формата : Default (H.263)
Идентификатор кодека : DX50
Идентификатор кодека/Подсказка : DivX 5
Продолжительность : 1 ч. 27 м.
Битрейт : 999 Кбит/сек
Ширина : 640 пикселей
Высота : 480 пикселей
Соотношение сторон : 4:3
Частота кадров : 25,000 кадров/сек
Цветовое пространство : YUV
Субдискретизация насыщенности : 4:2:0
Битовая глубина : 8 бит
Тип развёртки : Прогрессивная
Метод сжатия : С потерями
Бит/(Пиксели*Кадры) : 0.130
Размер потока : 622 Мбайт (71%)
Библиотека кодирования : Lavc51.11.0

Аудио #1
Идентификатор : 1
Формат : AC-3
Формат/Информация : Audio Coding 3
Расширение режима : CM (complete main)
Параметр Endianness формата : Big
Идентификатор кодека : 2000
Продолжительность : 1 ч. 27 м.
Вид битрейта : Постоянный
Битрейт : 192 Кбит/сек
Каналы : 2 канала
Расположение каналов : Front: L R
Частота : 48,0 КГц
Битовая глубина : 16 бит
Метод сжатия : С потерями
Размер потока : 120 Мбайт (14%)
Выравнивание : Разделение по промежуткам
Продолжительность промежутка : 40 мс. (1,00 видеокадр)
Время предзагрузки промежутка : 500 мс.

Аудио #2
Идентификатор : 2
Формат : AC-3
Формат/Информация : Audio Coding 3
Расширение режима : CM (complete main)
Параметр Endianness формата : Big
Идентификатор кодека : 2000
Продолжительность : 1 ч. 27 м.
Вид битрейта : Постоянный
Битрейт : 192 Кбит/сек
Каналы : 2 канала
Расположение каналов : Front: L R
Частота : 48,0 КГц
Битовая глубина : 16 бит
Метод сжатия : С потерями
Размер потока : 120 Мбайт (14%)
Выравнивание : Разделение по промежуткам
Продолжительность промежутка : 40 мс. (1,00 видеокадр)
Время предзагрузки промежутка : 500 мс.




Скачать Теодора через торрент https://pic1.kartinco.top/images/111/xqbvegoon7.jpg Скачать, смотреть онлайн Теодора бесплантно в хорошем качестве Описание: 547 год от Рождества Христова, расцвет Византийской империи. Здесь издавна идет борьба между патрициями (Синими) и народом ... 9.5 10 2
Info! Золотая раздача, скачанное не засчитывается.
Торрент: Зарегистрирован [2012-11-05 14:56] · скачан: 14 раз
Статус: √ проверено
Размер: 870 MB
Как cкачать? Как скачать Теодора через торрент | UTorrent

28-11-2019 20:33  


Отключить вcю реклaмy на сайте, в т.ч. и в плеере онлайн просмотра!

    Дорогой пользователь! Огромная просьба, поблагодарите релизера, оцените раздачу и оставьте свои комментарий, если Вы скачали Теодора через торрент бесплатно!!
    Комментировать посты могут только пользователи прошедшие не сложную регистрацию
    Показать сообщения:    


    Теодора через торрент
    Скачать бесплатно Теодора
    Теодора скачать торрент
    Теодора смотреть онлайн
    Cкачать фильм Теодора бесплатно
    Теодора скачать торрент в хорошем качестве
    Теодора смотреть онлайн бесплатно в хорошем качестве
    Вы не можете начинать темы
    Вы не можете отвечать на сообщения
    Вы не можете редактировать свои сообщения
    Вы не можете удалять свои сообщения
    Вы не можете голосовать в опросах
    Вы не можете прикреплять файлы к сообщениям
    Вы можете скачивать файлы
    Теодора / Teodora, imperatrice di Bisanzio [1954 г., драма, мелодрама, приключения, SATRip, VO] смотреть онлайн, скачать торрент picoco.icu