новый адрес зеркало Пациент X / Le patient / The Lost Patient [2022, триллер, драма, детектив, WEB-DLRip-AVC] DVO [Pazl Voice] от ExKinoRay смотреть онлайн, скачать торрент 5050.piratbit.fun
Аватар: Путь воды

Лицензия

В те дни

1 сезон

скачать смотреть онлайн John Wick Chapter 4

MVO

Крик 6

Дубляж

13 клиническая

3 сезон

Восстание зловещих мертвецов

Дубляж

Одни из нас

Дубляж

Dead Island 2 Gold

Gold

Deluxe RUS

Deluxe RUS

pack

Рекомендуем

ВАЖНО

ВАЖНО

30

Repack

The Lord of the Rings: Gollum

Лицензия

jed

RePack

nioh2

RePack

RDR2

RePack

NEED FOR SPEED™ PAYBACK

RePack

скачать торрент

Кинопоиск HD

Острые козырьки 6 сезон

6 сезон

FAR CRY 6

RePack

скачать торрент

Лицензия

скачать торрент

MVO

1

1 сезон

скачать торрент

1 сезон

скачать торрент

Лицензия

  

Пациент X / Le patient / The Lost Patient (Кристоф Шаррье) [2022, триллер, драма, детектив, WEB-DLRip-AVC] DVO [Pazl Voice] от ExKinoRay

Пациент X через торрент 5050.piratbit.fun

Раздают: 2 [ 0 KB/s ]
Размер: 1.57 GB | Добавлен: 6 мес. назад | Торрент скачан:296 раз
Смотреть онлайн | Скачать | Поддержите нас   

03-12-2022 14:22 Пациент X Скачать торрент  


Пациент X / Le patient / The Lost Patient
Информация о фильме:
Название: Пациент X
Оригинальное название: Le patient / The Lost Patient
Год выхода: 2022
Жанр: триллер, драма, детектив
Режиссер: Кристоф Шаррье
В ролях: Чомин Вергез, Клотильда Эм, Ребекка Уильямс, Одри Дана, Стефан Ридо, Матье Луччи, Алекс Лоутер, Батист Каррион-Уайсс, Рафаэль Серхио, Карин Мартан-Превель

Описание: Девятнадцатилетний Томас очнулся в больнице после трех лет комы. Пациент не помнит о своем прошлом и ему рассказывают, что он — единственный выживший из своей семьи после страшного нападения, а его сестра Лора бесследно исчезла. С помощью психолога Анны Томас пытается восстановить фрагменты прошлого, чтобы разгадать тайну своей семьи и разыскать убийцу. Но чем глубже герой проваливается в свое подсознание, тем страшнее становится правда о случившемся.

rating

Страна: Франция
Студия: ARTE, Centre National de la Cinématographie (CNC), Netflix, Région Auvergne-Rhône-Alpes, Sacem, Stromboli Films
Продолжительность: 01:33:48
Перевод: Любительский (двухголосый, закадровый) - Pazl Voice



Информация о файле:
Кодек: AVC
Формат: MKV
Качество: WEB-DLRip-AVC
Видео: MPEG-4 AVC, 1024x428, 25.000 fps, 1500 kbps
Аудио RU: AC3, 6 ch, 48 kHz, 448 kbps
Аудио EN: AC3, 6 ch, 48 kHz, 448 kbps
Субтитры: Русские, украинские, французские (Full, SDH), английские (Forced, Full, SDH)



x264 info: frame I:923 Avg QP:10.23 size: 53261
x264 info: frame P:23995 Avg QP:12.27 size: 20311
x264 info: frame B:115782 Avg QP:13.76 size: 4271
General
Unique ID : 41762804908529709967630934203034644142 (0x1F6B39415AFA3247A7DEE50505622EAE)
Complete name : H:Rip by wolf1245Le patient.2022.DVO.Pazl.x264.WEB-DLRip-AVC.{wolf1245.ExKinoRay}.mkv
Format : Matroska
Format version : Version 4
File size : 1.57 GiB
Duration : 1 h 33 min
Overall bit rate : 2 398 kb/s
Movie name : Le patient.2022.DVO.Pazl.x264.WEB-DLRip-AVC.{wolf1245.ExKinoRay}
Encoded date : UTC 2022-12-03 14:05:19
Writing application : mkvmerge v72.0.0 ('Minuano (Six-eight)') 64-bit
Writing library : libebml v1.4.4 + libmatroska v1.7.1
Video
ID : 1
Format : AVC
Format/Info : Advanced Video Codec
Format profile : High@L4.1
Format settings : CABAC / 12 Ref Frames
Format settings, CABAC : Yes
Format settings, Reference frames : 12 frames
Codec ID : V_MPEG4/ISO/AVC
Duration : 1 h 33 min
Bit rate : 1 500 kb/s
Width : 1 024 pixels
Height : 428 pixels
Display aspect ratio : 2.40:1
Frame rate mode : Constant
Frame rate : 25.000 FPS
Color space : YUV
Chroma subsampling : 4:2:0
Bit depth : 8 bits
Scan type : Progressive
Bits/(Pixel*Frame) : 0.137
Stream size : 1 006 MiB (63%)
Title : {wolf1245.ExKinoRay}
Writing library : x264 core 163 r3060 5db6aa6
Encoding settings : cabac=1 / ref=12 / deblock=1:-2:-1 / analyse=0x3:0x133 / me=umh / subme=9 / psy=1 / psy_rd=0.98:0.07 / mixed_ref=1 / me_range=32 / chroma_me=1 / trellis=2 / 8x8dct=1 / cqm=0 / deadzone=22,11 / fast_pskip=1 / chroma_qp_offset=-3 / threads=6 / lookahead_threads=1 / sliced_threads=0 / nr=0 / decimate=0 / interlaced=0 / bluray_compat=0 / constrained_intra=0 / bframes=12 / b_pyramid=2 / b_adapt=2 / b_bias=0 / direct=3 / weightb=1 / open_gop=0 / weightp=2 / keyint=250 / keyint_min=25 / scenecut=40 / intra_refresh=0 / rc_lookahead=100 / rc=2pass / mbtree=0 / bitrate=1500 / ratetol=1.0 / qcomp=0.75 / qpmin=0 / qpmax=69 / qpstep=4 / cplxblur=20.0 / qblur=0.5 / vbv_maxrate=50000 / vbv_bufsize=62500 / nal_hrd=none / filler=0 / ip_ratio=1.37 / pb_ratio=1.27 / aq=3:0.80
Language : French
Default : Yes
Forced : No
Audio #1
ID : 2
Format : AC-3
Format/Info : Audio Coding 3
Commercial name : Dolby Digital
Codec ID : A_AC3
Duration : 1 h 33 min
Bit rate mode : Constant
Bit rate : 448 kb/s
Channel(s) : 6 channels
Channel layout : L R C LFE Ls Rs
Sampling rate : 48.0 kHz
Frame rate : 31.250 FPS (1536 SPF)
Compression mode : Lossy
Stream size : 301 MiB (19%)
Title : DVO | Pazl Voice | RUS
Language : Russian
Service kind : Complete Main
Default : Yes
Forced : No
Audio #2
ID : 3
Format : AC-3
Format/Info : Audio Coding 3
Commercial name : Dolby Digital
Codec ID : A_AC3
Duration : 1 h 33 min
Bit rate mode : Constant
Bit rate : 448 kb/s
Channel(s) : 6 channels
Channel layout : L R C LFE Ls Rs
Sampling rate : 48.0 kHz
Frame rate : 31.250 FPS (1536 SPF)
Compression mode : Lossy
Stream size : 301 MiB (19%)
Title : ENG
Language : English
Service kind : Complete Main
Default : No
Forced : No
Text #1
ID : 4
Format : UTF-8
Codec ID : S_TEXT/UTF8
Codec ID/Info : UTF-8 Plain Text
Duration : 1 h 32 min
Bit rate : 49 b/s
Frame rate : 0.167 FPS
Count of elements : 930
Stream size : 33.6 KiB (0%)
Title : Full
Language : Russian
Default : No
Forced : No
Text #2
ID : 5
Format : UTF-8
Codec ID : S_TEXT/UTF8
Codec ID/Info : UTF-8 Plain Text
Duration : 1 h 32 min
Bit rate : 48 b/s
Frame rate : 0.164 FPS
Count of elements : 912
Stream size : 33.1 KiB (0%)
Title : Full
Language : Ukrainian
Default : No
Forced : No
Text #3
ID : 6
Format : UTF-8
Codec ID : S_TEXT/UTF8
Codec ID/Info : UTF-8 Plain Text
Duration : 1 h 25 min
Bit rate : 35 b/s
Frame rate : 0.172 FPS
Count of elements : 880
Stream size : 22.1 KiB (0%)
Title : Full
Language : French
Default : No
Forced : No
Text #4
ID : 7
Format : UTF-8
Codec ID : S_TEXT/UTF8
Codec ID/Info : UTF-8 Plain Text
Duration : 1 h 31 min
Bit rate : 40 b/s
Frame rate : 0.190 FPS
Count of elements : 1049
Stream size : 27.5 KiB (0%)
Title : SDH
Language : French
Default : No
Forced : No
Text #5
ID : 8
Format : UTF-8
Codec ID : S_TEXT/UTF8
Codec ID/Info : UTF-8 Plain Text
Duration : 1 h 32 min
Bit rate : 3 b/s
Frame rate : 0.011 FPS
Count of elements : 63
Stream size : 2.51 KiB (0%)
Title : Forced
Language : English
Default : No
Forced : Yes
Text #6
ID : 9
Format : UTF-8
Codec ID : S_TEXT/UTF8
Codec ID/Info : UTF-8 Plain Text
Duration : 1 h 32 min
Bit rate : 33 b/s
Frame rate : 0.164 FPS
Count of elements : 916
Stream size : 22.8 KiB (0%)
Title : Full
Language : English
Default : No
Forced : No
Text #7
ID : 10
Format : UTF-8
Codec ID : S_TEXT/UTF8
Codec ID/Info : UTF-8 Plain Text
Duration : 1 h 32 min
Bit rate : 50 b/s
Frame rate : 0.234 FPS
Count of elements : 1303
Stream size : 34.7 KiB (0%)
Title : SDH
Language : English
Default : No
Forced : No
Релиз от:
Автор релиза:




Скачать Пациент X через торрент http://i120.fastpic.org/big/2022/1203/5e/9903afff446dfd48c656c5472ebffa5e.jpg Скачать, смотреть онлайн Пациент X бесплатно в хорошем качестве Описание: Девятнадцатилетний Томас очнулся в больнице после трех лет комы. Пациент не помнит о своем прошлом и ему рассказывают, что он — ... 9.4 10 7
Торрент: Зарегистрирован [2022-12-03 14:22] · скачан: 296 раз
Статус: T временная
Размер: 1.57 GB
Как cкачать? Как скачать Пациент X через торрент | UTorrent

28-11-2019 20:33  


Отключить вcю реклaмy на сайте, в т.ч. и в плеере онлайн просмотра!

    Дорогой пользователь! Огромная просьба, поблагодарите релизера, оцените раздачу и оставьте свои комментарий, если Вы скачали Пациент X через торрент бесплатно!!
    Комментировать посты могут только пользователи прошедшие не сложную регистрацию
    Показать сообщения:    


    Пациент X через торрент
    Скачать бесплатно Пациент X
    Пациент X скачать торрент
    Пациент X смотреть онлайн
    Cкачать фильм Пациент X бесплатно
    Пациент X скачать торрент в хорошем качестве
    Пациент X смотреть онлайн бесплатно в хорошем качестве
    Вы можете начинать темы
    Вы можете отвечать на сообщения
    Вы не можете редактировать свои сообщения
    Вы не можете удалять свои сообщения
    Вы не можете голосовать в опросах
    Вы не можете прикреплять файлы к сообщениям
    Вы можете скачивать файлы