новый адрес зеркало М3ган / M3GAN [2022, Ужасы, Фантастика, триллер, WEB-DL 1080p] MVO Jaskier смотреть онлайн, скачать торрент 5050.piratbit.fun
Аватар: Путь воды

Лицензия

В те дни

1 сезон

скачать смотреть онлайн John Wick Chapter 4

MVO

Крик 6

Дубляж

13 клиническая

3 сезон

Восстание зловещих мертвецов

Дубляж

Одни из нас

Дубляж

Dead Island 2 Gold

Gold

Deluxe RUS

Deluxe RUS

pack

Рекомендуем

ВАЖНО

ВАЖНО

30

Repack

The Lord of the Rings: Gollum

Лицензия

jed

RePack

nioh2

RePack

RDR2

RePack

NEED FOR SPEED™ PAYBACK

RePack

скачать торрент

Кинопоиск HD

Острые козырьки 6 сезон

6 сезон

FAR CRY 6

RePack

скачать торрент

Лицензия

скачать торрент

MVO

1

1 сезон

скачать торрент

1 сезон

скачать торрент

Лицензия

  

М3ган / M3GAN (Джерард Джонстоун) [2022, Ужасы, Фантастика, триллер, WEB-DL 1080p] MVO Jaskier

М3ган через торрент 5050.piratbit.fun

Раздают: 13 [ 0.1 KB/s ]
Размер: 6.37 GB | Добавлен: 4 мес. 8 д. назад | Торрент скачан:745 раз
Смотреть онлайн | Скачать | Поддержите нас   

27-01-2023 10:09 М3ган Скачать торрент  

М3ган / M3GAN

Год выпуска: 2022
Выпущено: Новая Зеландия
Жанр: Ужасы, Фантастика, триллер
Режиссер: Джерард Джонстоун / Gerard Johnstone
В ролях: Эллисон Уильямс, Кимберли Кроссман, Вайолет Макгроу, Ронни Чиэн, Эми Дональд, Дженна Дэвис, Брайан Джордан Альварез, Джен Браун, Стефан Гарно, Лори Дунги, Эми Ашервуд, Джек Кэссиди, Майкл Сассенте, Samson Chan-Boon, Наташа Коджич

О фильме: 10-летняя Кэди вместе с папой и мамой попадает в автоаварию. Родители погибают, а девочка отправляется жить к тёте Джемме — сотруднице корпорации по производству технологичных игрушек. Не зная, как справиться с внезапно свалившейся на неё ответственностью, и не особо желая тратить на племянницу время, Джемма знакомит Кэди с экспериментальной куклой-андроидом М3ган, обладающей искусственным интеллектом. Первостепенной задачей новой «подружки» является защита ребёнка от всевозможного физического и морального вреда, и М3ган понимает это слишком буквально.

rating

Продолжительность: 01:41:56
Перевод: Профессиональный (многоголосый, закадровый) | Jaskier
Субтитры: Английские

Формат: MKV
Качество: WEB-DL 1080p
Видео: MPEG-4 AVC, 8000 Кбит/с, 1920x1080
Аудио #1: AC3, 6 ch, 384 Кбит/с | RUS |
Аудио #2: E-AC3 JOC, 6 ch, 768 Кбит/с | ENG |
скриншот  скриншот  скриншот  скриншот  скриншот  
General
Unique ID : 84051767593424600499409482799886512331 (0x3F3BC81781BDAE8B9F88CA1CBBCA30CB)
Complete name : E:TorrentsM3GAN.2022.1080p_от New-Team.mkv
Format : Matroska
Format version : Version 4
File size : 6.37 GiB
Duration : 1 h 41 min
Overall bit rate : 8 944 kb/s
Movie name : M3GAN.2022.1080p_от New-Team
Encoded date : UTC 2023-01-27 09:32:29
Writing application : mkvmerge v59.0.0 ('Shining Star') 64-bit
Writing library : libebml v1.4.2 + libmatroska v1.6.4

Video
ID : 1
Format : AVC
Format/Info : Advanced Video Codec
Format profile : High@L4
Format settings : CABAC / 4 Ref Frames
Format settings, CABAC : Yes
Format settings, Reference : 4 frames
Codec ID : V_MPEG4/ISO/AVC
Duration : 1 h 41 min
Bit rate : 8 000 kb/s
Width : 1 920 pixels
Height : 1 080 pixels
Display aspect ratio : 16:9
Frame rate mode : Constant
Frame rate : 23.976 (24000/1001) FPS
Color space : YUV
Chroma subsampling : 4:2:0
Bit depth : 8 bits
Scan type : Progressive
Bits/(Pixel*Frame) : 0.161
Stream size : 5.55 GiB (87%)
Writing library : x264 core 164 r3094 bfc87b7
Encoding settings : cabac=1 / ref=4 / deblock=1:-1:-1 / analyse=0x3:0x133 / me=umh / subme=9 / psy=1 / psy_rd=1.00:0.15 / mixed_ref=1 / me_range=16 / chroma_me=1 / trellis=2 / 8x8dct=1 / cqm=0 / deadzone=21,11 / fast_pskip=1 / chroma_qp_offset=-3 / threads=12 / lookahead_threads=1 / sliced_threads=0 / nr=0 / decimate=1 / interlaced=0 / bluray_compat=0 / stitchable=1 / constrained_intra=0 / bframes=3 / b_pyramid=2 / b_adapt=2 / b_bias=0 / direct=3 / weightb=1 / open_gop=0 / weightp=2 / keyint=48 / keyint_min=4 / scenecut=0 / intra_refresh=0 / rc_lookahead=48 / rc=abr / mbtree=1 / bitrate=8000 / ratetol=1.0 / qcomp=0.60 / qpmin=0 / qpmax=69 / qpstep=4 / vbv_maxrate=8800 / vbv_bufsize=16000 / nal_hrd=none / filler=0 / ip_ratio=1.40 / aq=1:1.00
Language : English
Default : Yes
Forced : No
Color range : Limited
Color primaries : BT.709
Transfer characteristics : BT.709
Matrix coefficients : BT.709

Audio #1
ID : 2
Format : AC-3
Format/Info : Audio Coding 3
Commercial name : Dolby Digital
Codec ID : A_AC3
Duration : 1 h 41 min
Bit rate mode : Constant
Bit rate : 384 kb/s
Channel(s) : 6 channels
Channel layout : L R C LFE Ls Rs
Sampling rate : 48.0 kHz
Frame rate : 31.250 FPS (1536 SPF)
Compression mode : Lossy
Stream size : 280 MiB (4%)
Title : MVO - Jaskier
Language : Russian
Service kind : Complete Main
Default : Yes
Forced : No

Audio #2
ID : 3
Format : E-AC-3 JOC
Format/Info : Enhanced AC-3 with Joint Object Coding
Commercial name : Dolby Digital Plus with Dolby Atmos
Codec ID : A_EAC3
Duration : 1 h 41 min
Bit rate mode : Constant
Bit rate : 768 kb/s
Channel(s) : 6 channels
Channel layout : L R C LFE Ls Rs
Sampling rate : 48.0 kHz
Frame rate : 31.250 FPS (1536 SPF)
Compression mode : Lossy
Stream size : 560 MiB (9%)
Language : English
Service kind : Complete Main
Default : No
Forced : No
Complexity index : 16
Number of dynamic objects : 15
Bed channel count : 1 channel
Bed channel configuration : LFE

Text #1
ID : 4
Format : UTF-8
Codec ID : S_TEXT/UTF8
Codec ID/Info : UTF-8 Plain Text
Duration : 1 h 41 min
Bit rate : 76 b/s
Count of elements : 1870
Stream size : 57.4 KiB (0%)
Title : SDH
Language : English
Default : No
Forced : No

Text #2
ID : 5
Format : UTF-8
Codec ID : S_TEXT/UTF8
Codec ID/Info : UTF-8 Plain Text
Duration : 1 h 41 min
Bit rate : 69 b/s
Count of elements : 1648
Stream size : 51.4 KiB (0%)
Language : English
Default : No
Forced : No




Скачать М3ган через торрент https://i121.fastpic.org/big/2023/0127/d5/b9fe8d91f9ba09df68d45649ceabdad5.jpg Скачать, смотреть онлайн М3ган бесплатно в хорошем качестве О фильме: 10-летняя Кэди вместе с папой и мамой попадает в автоаварию. Родители погибают, а девочка отправляется жить к тёте Джемме — ... 9.6 10 25
Info! Золотая раздача, скачанное не засчитывается.
Торрент: Зарегистрирован [2023-01-27 10:09] · скачан: 745 раз
Статус: √ проверено
Размер: 6.37 GB
Как cкачать? Как скачать М3ган через торрент | UTorrent

% Раздел Тема Автор DL S | L
Фильмы [HD 720p, 1080p] (Хороший звук DUB, MVO) [ 3.78 GB ] М3ГАН / м3ган / M3GAN | Jaskier | 720p bober100 Скачать
3 | 0
Фильмы [HD 720p, 1080p] (Хороший звук DUB, MVO) [ 8.91 GB ] М3ГАН / м3ган / M3GAN | Jaskier | 1080p bober100 Скачать
3 | 0

28-11-2019 20:33  


Отключить вcю реклaмy на сайте, в т.ч. и в плеере онлайн просмотра!

24-02-2023 08:48 М3ган Скачать торрент  

Неплохой фильм, один раз посмотреть вполне можно.



26-02-2023 09:14 М3ган Скачать торрент  

ага, любители терминатора даже всплакнуть могут на волне дежавю))



    Дорогой пользователь! Огромная просьба, поблагодарите релизера, оцените раздачу и оставьте свои комментарий, если Вы скачали М3ган через торрент бесплатно!!
    Комментировать посты могут только пользователи прошедшие не сложную регистрацию
    Показать сообщения:    


    М3ган через торрент
    Скачать бесплатно М3ган
    М3ган скачать торрент
    М3ган смотреть онлайн
    Cкачать фильм М3ган бесплатно
    М3ган скачать торрент в хорошем качестве
    М3ган смотреть онлайн бесплатно в хорошем качестве
    Вы можете начинать темы
    Вы можете отвечать на сообщения
    Вы не можете редактировать свои сообщения
    Вы не можете удалять свои сообщения
    Вы не можете голосовать в опросах
    Вы не можете прикреплять файлы к сообщениям
    Вы можете скачивать файлы