новый адрес зеркало Сансара / Сезон: 1 / Серии: 1-8 из 8 [2022, Драма, фантастика, WEBRip 720p] смотреть онлайн, скачать торрент 5050.piratbit.fun
Аватар: Путь воды

Лицензия

В те дни

1 сезон

скачать смотреть онлайн John Wick Chapter 4

MVO

Крик 6

Дубляж

13 клиническая

3 сезон

Восстание зловещих мертвецов

Дубляж

Одни из нас

Дубляж

Dead Island 2 Gold

Gold

Deluxe RUS

Deluxe RUS

pack

Рекомендуем

ВАЖНО

ВАЖНО

30

Repack

The Lord of the Rings: Gollum

Лицензия

jed

RePack

nioh2

RePack

RDR2

RePack

NEED FOR SPEED™ PAYBACK

RePack

скачать торрент

Кинопоиск HD

Острые козырьки 6 сезон

6 сезон

FAR CRY 6

RePack

скачать торрент

Лицензия

скачать торрент

MVO

1

1 сезон

скачать торрент

1 сезон

скачать торрент

Лицензия

  

Сансара / Сезон: 1 / Серии: 1-8 из 8 (Сергей Коротаев) [2022, Драма, фантастика, WEBRip 720p]

Сансара через торрент 5050.piratbit.fun

Раздают: 13 [ 328 KB/s ] Качают: 2 [ 0 KB/s ]
Размер: 8.34 GB | Добавлен: 10 д. назад | Торрент скачан:63 раза
Смотреть онлайн | Скачать | Поддержите нас   

09-04-2023 14:23 Сансара Скачать торрент  

Сансара
Год выпуска: 2022
Страна: Россия
Жанр: Драма, фантастика
Продолжительность: ~ 00:45:00 серия
Субтитры: отсутствуют

Режиссер: Сергей Коротаев

rating

В ролях: Павел Деревянко, Кристина Асмус, Павел Чинарёв, Ольга Сутулова, Константин Крюков, Анна Старшенбаум, Илья Борисов, Светлана Немоляева, Евгений Харитонов, Виктор Васильев, Дмитрий Астрахан, Анна Зайкова, Олег Фёдоров, Яков Шамшин, Иван Ефремов, Владимир Маслаков, Дмитрий Поднозов, Евгений Антропов, Владимир Кузнецов, Александр Мизёв, Сергей Сергеев, Ольга Лапшина

Описание: После празднования собственного тридцать пятого дня рождения время для Андрея начинает идти в обратную сторону: каждый новый день для него — предыдущий. Чтобы вернуться в реальное течение времени Андрею нужно найти ошибки, совершённые им в прошлом и исправить их. Он не понимает, как это сделать, считая, что никаких ошибок у него в прошлом не было.

Качество: WEBRip 720p
Формат: MKV

Видео: MPEG4 AVC Video, H264, 2.35:1, 1280x544, 25 fps, ~3200 kbps, 0.182 bit/pixel
Аудио 1: AC3, 48,0 КГц, 6 ch, 384 Кбит/с | RUS
Аудио 2: AC3, 48,0 КГц, 2 ch, 192 Кбит/с | RUS
скриншот  скриншот  скриншот  скриншот  скриншот  скриншот  

General
Unique ID : 296936935290380113203978868738293862429 (0xDF63F939114B5CD7456B6814F0A9901D)
Complete name : W:\Sansara.S01.WEB-DLRip.720p.MrMittens\Sansara.S01.E01.WEB-DLRip.720p.MrMittens.mkv
Format : Matroska
Format version : Version 4 / Version 2
File size : 1.14 GiB
Duration : 43 min 30 s
Overall bit rate : 3 757 kb/s
Encoded date : UTC 2023-04-06 04:37:18
Writing application : mkvmerge v45.0.0 ('Heaven in Pennies') 32-bit
Writing library : libebml v1.3.10 + libmatroska v1.5.2
Attachments : poster.jpg

Video
ID : 1
Format : AVC
Format/Info : Advanced Video Codec
Format profile : High@L3.1
Format settings : CABAC / 3 Ref Frames
Format settings, CABAC : Yes
Format settings, ReFrames : 3 frames
Format settings, GOP : M=1, N=30
Codec ID : V_MPEG4/ISO/AVC
Duration : 43 min 30 s
Bit rate : 3 175 kb/s
Width : 1 280 pixels
Height : 544 pixels
Display aspect ratio : 2.35:1
Frame rate mode : Constant
Frame rate : 25.000 FPS
Color space : YUV
Chroma subsampling : 4:2:0
Bit depth : 8 bits
Scan type : Progressive
Bits/(Pixel*Frame) : 0.182
Stream size : 988 MiB (85%)
Default : Yes
Forced : No
Color range : Limited
Color primaries : BT.709
Transfer characteristics : BT.709
Matrix coefficients : BT.709

Audio #1
ID : 2
Format : AC-3
Format/Info : Audio Coding 3
Codec ID : A_AC3
Duration : 43 min 30 s
Bit rate mode : Constant
Bit rate : 384 kb/s
Channel(s) : 6 channels
Channel positions : Front: L C R, Side: L R, LFE
Sampling rate : 48.0 kHz
Frame rate : 31.250 FPS (1536 SPF)
Bit depth : 16 bits
Compression mode : Lossy
Stream size : 119 MiB (10%)
Title : [Original | 5.1 AC-3 Audio]
Language : Russian
Service kind : Complete Main
Default : Yes
Forced : No

Audio #2
ID : 3
Format : AC-3
Format/Info : Audio Coding 3
Codec ID : A_AC3
Duration : 43 min 30 s
Bit rate mode : Constant
Bit rate : 192 kb/s
Channel(s) : 2 channels
Channel positions : Front: L R
Sampling rate : 48.0 kHz
Frame rate : 31.250 FPS (1536 SPF)
Bit depth : 16 bits
Compression mode : Lossy
Stream size : 59.7 MiB (5%)
Title : [Original | 2.0 AC-3 Audio]
Language : Russian
Service kind : Complete Main
Default : No
Forced : No

Внимание! Раздача ведётся путём добавления новых серий; при каждом добавлении создаётся новый торрент.
Чтобы начать докачку новой серии, пользователям необходимо сделать следующее:
1. Остановить скачивание;
2. Удалить старый торрент у себя из клиента (старые серии удалять не надо);
3. Скачать новый торрент и запустить его у себя в клиенте вместо старого, при этом указать клиенту путь в старую папку куда и должно происходить скачивание новых серий. Ваш клиент при этом должен произвести хеширование (проверку) старой папки и будет докачивать только те серии, которых у вас ещё нет. Старые серии при этом не удаляются, а продолжают раздаваться! Eсли вы уже удалили старые серии, то предотвратить повторную закачку старых серий можно, отжав галочку в соответствующих местах при запуске нового торрента.




Скачать Сансара через торрент https://i121.fastpic.org/big/2023/0402/c3/c5afd96e8ea98f8fa0749e3a2e2b52c3.jpg Скачать, смотреть онлайн Сансара бесплатно в хорошем качестве Описание: После празднования собственного тридцать пятого дня рождения время для Андрея начинает идти в обратную сторону: каждый новый день ... 8.9 10 16
Торрент: Зарегистрирован [2023-05-25 14:54] · скачан: 63 раз
Статус: √ проверено
Размер: 8.34 GB
Как cкачать? Как скачать Сансара через торрент | UTorrent

% Раздел Тема Автор DL S | L
Наши сериалы [ 12.43 GB ] Сансара / Сезон: 1 / Серии: 1-8 из 8 | | 1080p bober100 Скачать
15 | 5
Наши сериалы [ 4.43 GB ] Сансара / Сезон: 1 / Серии: 1-8 из 8 | | WEBRip-AVC bober100 Скачать
9 | 1
Наши сериалы [ 5.09 GB ] Сансара / Сезон: 1 / Серии: 1-8 из 8 | | WEBRip bober100 Скачать
4 | 0



Последний раз редактировалось: bober100 (2023-05-25 14:54), всего редактировалось 6 раз(а)

28-11-2019 20:33  


Отключить вcю реклaмy на сайте, в т.ч. и в плеере онлайн просмотра!

13-04-2023 13:57 Сансара Скачать торрент  

бред



13-04-2023 17:13 Сансара Скачать торрент  

VovaKu писал(а):

бред

ничего бредового не вижу. Охуенный сериал



21-05-2023 15:45 Сансара Скачать торрент  

отличный сериал



25-05-2023 03:44 Сансара Скачать торрент  

VovaKu писал(а):

бред

Мультики тогда смотри



    Дорогой пользователь! Огромная просьба, поблагодарите релизера, оцените раздачу и оставьте свои комментарий, если Вы скачали Сансара через торрент бесплатно!!
    Комментировать посты могут только пользователи прошедшие не сложную регистрацию
    Показать сообщения:    


    Сансара через торрент
    Скачать бесплатно Сансара
    Сансара скачать торрент
    Сансара смотреть онлайн
    Cкачать фильм Сансара бесплатно
    Сансара скачать торрент в хорошем качестве
    Сансара смотреть онлайн бесплатно в хорошем качестве
    Вы не можете начинать темы
    Вы не можете отвечать на сообщения
    Вы не можете редактировать свои сообщения
    Вы не можете удалять свои сообщения
    Вы не можете голосовать в опросах
    Вы не можете прикреплять файлы к сообщениям
    Вы можете скачивать файлы